Торрент файл
скачать торрент магнет ссылка Добавлен: 28 мар 2019, 21:26
Размер: 11.71 ГБ
Сидеров: 0
Личеров: 0
Статус: (salma3)
Автор

СообщениеДобавлено: 28 мар 2019, 21:26 

В сети
Супермодератор
Аватара пользователя
Дата регистрации:
15 фев 2012, 16:44
Возраст: 30
Спасибо: 8096 / 2147
Сообщения: 92368
Год выхода: 1986
Жанр: Фантастика, комедия, приключения
Режиссер: Леонард Нимой

В ролях: Уильям Шэтнер, Леонард Нимой, ДеФорест Келли, Джеймс Дуэн, Джордж Такей, Уолтер Кениг, Нишелль Николс, Джейн Уайатт, Кэтрин Хикс, Марк Ленард, Робин Кертис, Роберт Элленштейн, Джон Шак, Брок Питерс, Майкл Снайдер, Майкл Берриман, Грэйс ли Уитни, Джейн Уидлин

О фильме:
Возвращаясь домой с Вулкана на экспроприированном клингонском космическом корабле, Керк и его команда заранее готовятся к худшему. Хотя долг чести выполнен, и Спок снова с нами живой и здоровый, у команды нет более причин радоваться, особенно когда они начинают вспоминать о попутно содеянных проступках. Неподчинение приказу, угнанный, а затем и самоликвидированный «Энтерпрайз», саботированный «Эксцельсиор» — все это заставляет их строить отнюдь не радужные предположения относительно того, чем их встретит Земля. Но реальность оказывается куда мрачнее — к Земле приблизился огромный космический корабль неизвестной конструкции, транслирующий на планету запросы на языке китов, к 23-му веку окончательно вымерших. Странный корабль имеет свойство воздействовать на погоду, которая устраивает на Земле сплошные ливни, грозы, ураганы и смерчи. Анализ ситуации позволяет предположить, что если благодаря какому-то чуду на Земле снова появятся киты, то это стабилизирует ситуацию и разрешит надвигающийся конфликт. И как вы думаете, кто способен сотворить чудо? Естественно, капитан Керк и его команда! Они готовы отправиться в прошлое для того, чтобы найти китов и доставить их в будущее ради спасения всей планеты.



Страна: США
Продолжительность: 01:58:51
Перевод: Профессиональный многоголосый, авторский

Файл
Кодек: x.264
Качество: BDRip 1080p
Видео: MPEG-4 AVC, 11.7 Mбит/с, 1916x816, 23.976 кадр/с
Аудио #1: Русский ( АС3, 2ch, 192 Кбит/с, 48.0 KHz) Профессиональный (многоголосый, закадровый) SDI Media
Аудио #2: Русский ( АС3, 6ch, 448 Кбит/с, 48.0 KHz) Авторский (одноголосый, закадровый) Ю. Живов
Аудио #3: Английский ( DTS, 6ch, 1509 Кбит/с, 48.0 KHz)
Субтитры: Русские, английские

General
Unique ID : 180227888469317482155638162572636317047 (0x8796A0F3E754C9C8B7EA8A4F72BBE577)
Complete name : Star.Trek.IV.The.Voyage.Home.1986.1080p.BluRay.2xRus.Eng.HDCLUB-Skazhutin.mkv
Format : Matroska
Format version : Version 4 / Version 2
File size : 11.7 GiB
Duration : 1 h 58 min
Overall bit rate : 14.1 Mb/s
Movie name : Star Trek IV: The Voyage Home (1986) - Release for HDCLUB by Skazhutin
Encoded date : UTC 2013-05-04 07:43:21
Writing application : mkvmerge v6.2.0 ('Promised Land') built on Apr 28 2013 12:22:01
Writing library : libebml v1.3.0 + libmatroska v1.4.0
Cover : Yes
Attachments : cover.jpg / xlog.txt

Video
ID : 1
Format : AVC
Format/Info : Advanced Video Codec
Format profile : High@L4.1
Format settings, CABAC : Yes
Format settings, RefFrames : 5 frames
Codec ID : V_MPEG4/ISO/AVC
Duration : 1 h 58 min
Bit rate : 11.7 Mb/s
Width : 1 916 pixels
Height : 816 pixels
Display aspect ratio : 2.35:1
Frame rate mode : Constant
Frame rate : 23.976 (24000/1001) FPS
Color space : YUV
Chroma subsampling : 4:2:0
Bit depth : 8 bits
Scan type : Progressive
Bits/(Pixel*Frame) : 0.312
Stream size : 9.70 GiB (83%)
Title : Release for HDCLUB
Writing library : x264 core 132 r2309 3b1f1f7
Encoding settings : cabac=1 / ref=5 / deblock=1:-3:-3 / analyse=0x3:0x113 / me=umh / subme=11 / psy=1 / psy_rd=1.00:0.00 / mixed_ref=1 / me_range=48 / chroma_me=1 / trellis=2 / 8x8dct=1 / cqm=0 / deadzone=21,11 / fast_pskip=1 / chroma_qp_offset=-2 / threads=12 / lookahead_threads=2 / sliced_threads=0 / nr=0 / decimate=1 / interlaced=0 / bluray_compat=0 / constrained_intra=0 / bframes=8 / b_pyramid=2 / b_adapt=2 / b_bias=0 / direct=3 / weightb=1 / open_gop=0 / weightp=2 / keyint=250 / keyint_min=23 / scenecut=40 / intra_refresh=0 / rc_lookahead=40 / rc=crf / mbtree=0 / crf=16.0 / qcomp=0.70 / qpmin=0 / qpmax=69 / qpstep=4 / vbv_maxrate=50000 / vbv_bufsize=62500 / crf_max=0.0 / nal_hrd=none / ip_ratio=1.40 / pb_ratio=1.30 / aq=1:0.80
Language : English
Default : Yes
Forced : No
Color range : Limited
Color primaries : BT.709
Transfer characteristics : BT.709
Matrix coefficients : BT.709

Audio #1
ID : 2
Format : AC-3
Format/Info : Audio Coding 3
Mode : Dolby Digital
Format settings, Endianness : Big
Codec ID : A_AC3
Duration : 1 h 58 min
Bit rate mode : Constant
Bit rate : 192 kb/s
Channel(s) : 2 channels
Channel positions : Front: L R
Sampling rate : 48.0 kHz
Frame rate : 31.250 FPS (1536 SPF)
Bit depth : 16 bits
Compression mode : Lossy
Stream size : 163 MiB (1%)
Title : AC3 2.0 @ 192 kbps - MVO, SDI Media
Language : Russian
Service kind : Complete Main
Default : Yes
Forced : No

Audio #2
ID : 3
Format : AC-3
Format/Info : Audio Coding 3
Format settings, Endianness : Big
Codec ID : A_AC3
Duration : 1 h 58 min
Bit rate mode : Constant
Bit rate : 448 kb/s
Channel(s) : 6 channels
Channel positions : Front: L C R, Side: L R, LFE
Sampling rate : 48.0 kHz
Frame rate : 31.250 FPS (1536 SPF)
Bit depth : 16 bits
Compression mode : Lossy
Stream size : 381 MiB (3%)
Title : AC3 5.1 @ 448 kbps - VO, Jivov
Language : Russian
Service kind : Complete Main
Default : No
Forced : No

Audio #3
ID : 4
Format : DTS
Format/Info : Digital Theater Systems
Mode : 16
Format settings, Endianness : Big
Codec ID : A_DTS
Duration : 1 h 58 min
Bit rate mode : Constant
Bit rate : 1 509 kb/s
Channel(s) : 6 channels
Channel positions : Front: L C R, Side: L R, LFE
Sampling rate : 48.0 kHz
Frame rate : 93.750 FPS (512 SPF)
Bit depth : 24 bits
Compression mode : Lossy
Stream size : 1.25 GiB (11%)
Title : DTS 5.1 @ 1536 kbps
Language : English
Default : No
Forced : No

Text #1
ID : 5
Format : UTF-8
Codec ID : S_TEXT/UTF8
Codec ID/Info : UTF-8 Plain Text
Language : Russian
Default : No
Forced : No

Text #2
ID : 6
Format : UTF-8
Codec ID : S_TEXT/UTF8
Codec ID/Info : UTF-8 Plain Text
Language : English
Default : No
Forced : No

Menu
00:00:00.000 : en:Opening Credits
00:03:08.938 : en:Court-Martial
00:07:02.171 : en:Exile
00:13:36.022 : en:Heading Home
00:16:43.167 : en:Distress Calls
00:27:29.938 : en:Time Warp
00:36:06.747 : en:San Francisco
00:45:25.389 : en:George and Gracie
00:51:33.422 : en:Colorful Metaphors
00:58:01.769 : en:Professor Scott
01:02:57.648 : en:The Truth
01:12:17.666 : en:Spycatchers
01:17:38.654 : en:Unwelcome Guest
01:22:44.542 : en:Rescue
01:28:29.304 : en:Whale Hunt
01:37:17.081 : en:Crash Landing
01:48:14.279 : en:The Enterprise
01:55:00.727 : en:End Credits


_________________
Проголосуй за трекер Открытый торрент трекер - RUS-MEDIA.ORG

Проголосуй Открытый торрент трекер - RUS-MEDIA.ORG


Книжный торрент трекер



Вернуться к началу
 Профиль Отправить личное сообщение  
 
   Похожие торренты   Автор   Торрент   Размер 
В этой теме нет новых непрочитанных сообщений. Звездный путь: Восстание / Star Trek: Insurrection [фантастика, боевик, триллер, приключения, 1998] BDRip 1080p, 3Mvo+Avo+Sub

salma3

39 | 33

9.02 ГБ

В этой теме нет новых непрочитанных сообщений. Звездный путь / Star Trek [фантастика, боевик, приключения, 2009] BDRip, Dub

salma3

0 | 0

2.18 ГБ

В этой теме нет новых непрочитанных сообщений. Звёздный путь: Дискавери / Star Trek: Discovery [S01] [Приключения, фантастика, 2017] WEBRip 1080p, Mvo [IdeaFilm]

salma3

1 | 2

56.33 ГБ

В этой теме нет новых непрочитанных сообщений. Звездный путь 7: Поколения / Star Trek: Generations [Фантастика, боевик, триллер, 1994] BDRip 1080p, Mvo

salma3

0 | 0

10.66 ГБ

В этой теме нет новых непрочитанных сообщений. Звездный путь: Возмездие / Star Trek: Nemesis [Фантастика, боевик, триллер, 2002] BDRip 1080p, Mvo

salma3

0 | 0

10.21 ГБ

В этой теме нет новых непрочитанных сообщений. Звездный путь: Фильм / Star Trek: The Motion Picture [Фантастика, детектв, приключениия, 1979] BDRip 1080p, Mvo

salma3

0 | 0

10.36 ГБ

В этой теме нет новых непрочитанных сообщений. Звездный путь 2: Гнев Хана / Star Trek: The Wrath of Khan [Фантастика, боевик, триллер, 1982] BDRip 1080p, Mvo

salma3

0 | 0

9.72 ГБ


Начать новую тему Ответить на тему  [ 1 сообщение ] 




Для Мосгорсуда, Роскомнадзора и рекламодателей:: mosgorsud-torrent[собачка]yandex.ru
cron