COVID-19 - Последняя информация о коронавирусе на сайте Минздрава




Торрент файл
скачать торрент магнет ссылка Добавлен: 27 мар 2019, 11:53
Размер: 3.54 ГБ
Сидеров: 24
Личеров: 2
Статус: (salma3)
Автор

СообщениеДобавлено: 27 мар 2019, 11:53 

Не в сети
Супермодератор
Аватара пользователя
Дата регистрации:
15 фев 2012, 16:44
Возраст: 32
Спасибо: 8298 / 2148
Сообщения: 97035
Год выпуска: 2018
Жанр: Драма, приключения
Режиссёр: Роберт Д. Кржиковски

В ролях: Сэм Эллиотт, Эйдан Тёрнер, Рон Ливингстон, Шон Бриджерс, Кэйтлин Фицджералд, Ларри Миллер, Эллар Колтрейн, Ризван Манжи, Марк Стегер, Анастасия Циканава

Описание:
Легендарный американский ветеран по имени Кельвин Барр в годы Второй мировой войны участвовал в боевых действиях и даже убил Адольфа Гитлера. Теперь же герой живёт тихой жизнью, однако страна вновь призывает его в строй. С ним связываются ФБР, чтобы выследить и уничтожить снежного человека, поскольку существо, прячущееся в глубине канадских лесов, является носителем вируса, который может вызвать эпидемию.




Страна: Канада, США
Продолжительность: 01:37:48

Перевод: Профессиональный многоголосый | [HDRezka Studio]

Качество:WEB-DL 1080p
Аудио кодек: AC3
Видео: 1920x798 (2.40:1), 23,976 fps, x264 ~4 607 kbps avg, 0.125 bit/pixel
Аудио1: 48 kHz, AC3 Dolby Digital, 2 (L,R) ch, ~192.00 kbps avg | RUS (HDRezka Studio)
Аудио2: 48 kHz, AC3 Dolby Digital, 3/2 (L,C,R,l,r) + LFE ch, ~384.00 kbps avg | ENG
Субтитры: Pусские (В.Шуравин, К.Колосов), английские

Общее
Уникальный идентификатор : 293347031877983962248541205401963118896 (0xDCB09551C7534F68893B376293A8C130)
Полное имя : F:OlLanDGroupThe.Man.Who.Killed.Hitler.and.Then.the.Bigfoot.2018.WEB-DL(1080p).OllanDGroup.mkv
Формат : Matroska
Версия формата : Version 4 / Version 2
Размер файла : 3,54 Гбайт
Продолжительность : 1 ч. 37 м.
Общий поток : 5185 Кбит/сек
Название фильма : The.Man.Who.Killed.Hitler.and.Then.the.Bigfoot.2018 #TorpedoUK#
Дата кодирования : UTC 2019-03-27 05:04:07
Программа кодирования : mkvmerge v29.0.0 ('Like It Or Not') 64-bit
Библиотека кодирования : libebml v1.3.6 + libmatroska v1.4.9

Видео
Идентификатор : 1
Формат : AVC
Формат/Информация : Advanced Video Codec
Профиль формата : High@L4
Параметр CABAC формата : Да
Параметр ReFrames формата : 5 кадров
Идентификатор кодека : V_MPEG4/ISO/AVC
Продолжительность : 1 ч. 37 м.
Битрейт : 4607 Кбит/сек
Ширина : 1920 пикселей
Высота : 798 пикселей
Соотношение сторон : 2,40:1
Режим частоты кадров : Постоянный
Частота кадров : 23,976 (23976/1000) кадра/сек
Цветовое пространство : YUV
Субдискретизация насыщенности : 4:2:0
Битовая глубина : 8 бит
Тип развёртки : Прогрессивная
Бит/(Пиксели*Кадры) : 0.125
Размер потока : 3,15 Гбайт (89%)
Заголовок : The.Man.Who.Killed.Hitler.and.Then.the.Bigfoot.2018.1080p.WEB-DL.DD5.1.H264-FGT
Язык : English
Default : Да
Forced : Нет
Цветовой диапазон : Limited
Основные цвета : BT.709
Характеристики трансфера : BT.709
Коэффициенты матрицы : BT.709

Аудио #1
Идентификатор : 2
Формат : AC-3
Формат/Информация : Audio Coding 3
Расширение режима : CM (complete main)
Параметр Endianness формата : Big
Идентификатор кодека : A_AC3
Продолжительность : 1 ч. 37 м.
Вид битрейта : Постоянный
Битрейт : 192 Кбит/сек
Каналы : 2 канала
Расположение каналов : Front: L R
Частота : 48,0 КГц
Частота кадров : 31,250 кадров/сек (1536 spf)
Битовая глубина : 16 бит
Метод сжатия : С потерями
Задержка видео : -42 мс.
Размер потока : 134 Мбайт (4%)
Заголовок : MVO [HDRezka Studio]
Язык : Russian
Default : Да
Forced : Нет

Аудио #2
Идентификатор : 3
Формат : AC-3
Формат/Информация : Audio Coding 3
Расширение режима : CM (complete main)
Параметр Endianness формата : Big
Идентификатор кодека : A_AC3
Продолжительность : 1 ч. 37 м.
Вид битрейта : Постоянный
Битрейт : 384 Кбит/сек
Каналы : 6 каналов
Расположение каналов : Front: L C R, Side: L R, LFE
Частота : 48,0 КГц
Частота кадров : 31,250 кадров/сек (1536 spf)
Битовая глубина : 16 бит
Метод сжатия : С потерями
Задержка видео : -42 мс.
Размер потока : 269 Мбайт (7%)
Заголовок : [Original]
Язык : English
Default : Нет
Forced : Нет

Текст #1
Идентификатор : 4
Формат : UTF-8
Идентификатор кодека : S_TEXT/UTF8
Идентификатор кодека/Информация : UTF-8 Plain Text
Продолжительность : 1 ч. 30 м.
Битрейт : 59 бит/сек
Count of elements : 813
Размер потока : 39,1 Кбайт (0%)
Заголовок : Full
Язык : Russian
Default : Нет
Forced : Нет

Текст #2
Идентификатор : 5
Формат : UTF-8
Идентификатор кодека : S_TEXT/UTF8
Идентификатор кодека/Информация : UTF-8 Plain Text
Продолжительность : 1 ч. 31 м.
Битрейт : 33 бит/сек
Count of elements : 825
Размер потока : 22,5 Кбайт (0%)
Заголовок : Full
Язык : English
Default : Нет
Forced : Нет

Меню
00:00:00.000 : en:1
00:10:27.419 : en:2
00:19:48.229 : en:3
00:29:54.293 : en:4
00:41:36.495 : en:5
00:53:59.279 : en:6
01:01:08.666 : en:7
01:11:07.139 : en:8
01:19:45.907 : en:9
01:31:51.924 : en:10




Релиз от:


_________________
Проголосуй за трекер Открытый торрент трекер - RUS-MEDIA.ORG

Проголосуй Открытый торрент трекер - RUS-MEDIA.ORG


Скачать книги и аудио книги через торрент


Вернуться к началу
 Профиль Отправить личное сообщение  
 
   Похожие торренты   Автор   Торрент   Размер 
В этой теме нет новых непрочитанных сообщений. Человек, который убил Гитлера и затем снежного человека / The Man Who Killed Hitler and Then The Bigfoot [Фантастика, драма, приключения, 2018] BDRip 1080p, Dub [iTunes]

salma3

3 | 0

6.71 ГБ

В этой теме нет новых непрочитанных сообщений. Человек, который убил Гитлера и затем снежного человека / The Man Who Killed Hitler and Then The Bigfoot [Фантастика, драма, приключения, 2018] BDRip, Dub [iTunes]

salma3

0 | 51

1.45 ГБ

В этой теме нет новых непрочитанных сообщений. Человек, который убил Гитлера и затем снежного человека / The Man Who Killed Hitler and Then The Bigfoot [Фантастика, драма, приключения, 2018] BDRip 720p, Dub [iTunes]

salma3

0 | 21

3.83 ГБ

В этой теме нет новых непрочитанных сообщений. Человек, который убил Дон Кихота / The Man Who Killed Don Quixote [Фэнтези, драма, комедия, 2018] BDRemux 1080p, Dub [iTunes]

salma3

0 | 0

34.2 ГБ

В этой теме нет новых непрочитанных сообщений. Человек, который убил Дон Кихота / The Man Who Killed Don Quixote [Фэнтези, драма, комедия, 2018] BDRip 1080p, Dub [iTunes]

salma3

0 | 0

13.84 ГБ

В этой теме нет новых непрочитанных сообщений. Человек, который убил Дон Кихота / The Man Who Killed Don Quixote [Фэнтези, драма, комедия, 2018] BDRip, Dub [iTunes]

salma3

0 | 0

2.12 ГБ

В этой теме нет новых непрочитанных сообщений. Человек, который убил Дон Кихота / The Man Who Killed Don Quixote [Фэнтези, драма, комедия, 2018] BDRip, Dub [iTunes]

salma3

0 | 1

1.46 ГБ


Начать новую тему Ответить на тему  [ 1 сообщение ] 




Для Мосгорсуда, Роскомнадзора и рекламодателей:: rstracker[собака]yandex.ru
cron