COVID-19 - Последняя информация о коронавирусе на сайте Минздрава




Торрент файл
скачать торрент магнет ссылка Добавлен: 10 мар 2019, 12:49
Размер: 4.37 ГБ
Сидеров: 0
Личеров: 0
Статус: (salma3)
Автор

СообщениеДобавлено: 10 мар 2019, 12:49 

Не в сети
Супермодератор
Аватара пользователя
Дата регистрации:
15 фев 2012, 16:44
Возраст: 32
Спасибо: 8304 / 2148
Сообщения: 97121
Год выпуска: 2001
Жанр: Триллер, ужасы
Режиссер: Джеми Блэнкс

В ролях: Дэнис Ричардс, Марли Шелтон, Кэтрин Хейгл, Джессика Кэпшоу, Дэвид Бореаназ, Дэниэл Косгров, Джессика Коффил

О фильме:
Месть сладка, словно конфетка ко дню Св. Валентина. По крайней мере, так думает мстительный убийца в маске Купидона. «Поздравляю… скоро встретимся». Разбитые сердца, любовь до смерти и другие серьезные травмы в исполнении современных молодых звезд в наполненном черным юмором неожиданном триллере.



Выпущено: США, Warner Bros. Pictures, Village Roadshow Productions, NPV Entertainment
Продолжительность: 01:36:05
Перевод: Дублированный

Файл
Качество: BDRip 1080p
Видео: AVC/H.264, 1920x816 (2.35:1), ~6128 kbps, 23.976 fps
Аудио: AC3, 6 ch, 48.0 KHz, 384 kbps
Релиз от: R.G. Goldenshara
Субтитры: Русские, английские
Навигация по главам: Есть

General
Unique ID : 182746693968237518667322677330916310292 (0x897BBBA6E0FF6604A3A30FB6CCA27D14)
Complete name : E:Мои рипыДень Святого Валентина.2001.BDRip.1080p.DUB.mkv
Format : Matroska
Format version : Version 4
File size : 4.37 GiB
Duration : 1 h 36 min
Overall bit rate : 6 510 kb/s
Movie name : Valentine 2001 - NovaLan
Encoded date : UTC 2019-03-08 17:40:20
Writing application : mkvmerge v6.8.0 ('Theme for Great Cities') 32bit built on Mar 2 2014 21:27:07
Writing library : libebml v1.3.0 + libmatroska v1.4.1

Video
ID : 1
Format : AVC
Format/Info : Advanced Video Codec
Format profile : High@L4.1
Format settings : CABAC / 5 Ref Frames
Format settings, CABAC : Yes
Format settings, ReFrames : 5 frames
Codec ID : V_MPEG4/ISO/AVC
Duration : 1 h 36 min
Bit rate : 6 128 kb/s
Width : 1 920 pixels
Height : 816 pixels
Display aspect ratio : 2.35:1
Frame rate mode : Constant
Frame rate : 23.976 (23976/1000) FPS
Color space : YUV
Chroma subsampling : 4:2:0
Bit depth : 8 bits
Scan type : Progressive
Bits/(Pixel*Frame) : 0.163
Stream size : 4.02 GiB (92%)
Writing library : x264 core 130 r2273 b3065e6
Encoding settings : cabac=1 / ref=5 / deblock=1:-3:-3 / analyse=0x3:0x113 / me=umh / subme=11 / psy=1 / psy_rd=1.00:0.15 / mixed_ref=1 / me_range=48 / chroma_me=1 / trellis=2 / 8x8dct=1 / cqm=0 / deadzone=21,11 / fast_pskip=0 / chroma_qp_offset=-4 / threads=6 / lookahead_threads=1 / sliced_threads=0 / nr=0 / decimate=0 / interlaced=0 / bluray_compat=0 / constrained_intra=0 / bframes=8 / b_pyramid=2 / b_adapt=2 / b_bias=0 / direct=2 / weightb=1 / open_gop=0 / weightp=2 / keyint=250 / keyint_min=23 / scenecut=40 / intra_refresh=0 / rc=2pass / mbtree=0 / bitrate=6128 / ratetol=1.0 / qcomp=0.60 / qpmin=0 / qpmax=69 / qpstep=4 / cplxblur=20.0 / qblur=0.5 / ip_ratio=1.40 / pb_ratio=1.30 / aq=2:1.00
Language : English
Default : Yes
Forced : No

Audio
ID : 2
Format : AC-3
Format/Info : Audio Coding 3
Commercial name : Dolby Digital
Codec ID : A_AC3
Duration : 1 h 36 min
Bit rate mode : Constant
Bit rate : 384 kb/s
Channel(s) : 6 channels
Channel layout : L R C LFE Ls Rs
Sampling rate : 48.0 kHz
Frame rate : 31.250 FPS (1536 SPF)
Bit depth : 16 bits
Compression mode : Lossy
Stream size : 264 MiB (6%)
Title : Дубляж
Language : Russian
Service kind : Complete Main
Default : Yes
Forced : No

Text #1
ID : 3
Format : UTF-8
Codec ID : S_TEXT/UTF8
Codec ID/Info : UTF-8 Plain Text
Language : Russian
Default : No
Forced : No

Text #2
ID : 4
Format : UTF-8
Codec ID : S_TEXT/UTF8
Codec ID/Info : UTF-8 Plain Text
Language : English
Default : No
Forced : No

Menu
00:00:00.000 : en:Chapter 1
00:07:18.938 : en:Chapter 2
00:15:52.451 : en:Chapter 3
00:22:50.535 : en:Chapter 4
00:32:25.693 : en:Chapter 5
00:40:06.237 : en:Chapter 6
00:48:11.555 : en:Chapter 7
00:56:50.240 : en:Chapter 8
01:05:35.514 : en:Chapter 9
01:11:32.121 : en:Chapter 10
01:19:08.243 : en:Chapter 11
01:26:54.667 : en:Chapter 12
01:33:04.078 : en:Chapter 13
01:36:04.967 : en:Chapter 14


_________________
Проголосуй за трекер Открытый торрент трекер - RUS-MEDIA.ORG

Проголосуй Открытый торрент трекер - RUS-MEDIA.ORG


Скачать книги и аудио книги через торрент


Вернуться к началу
 Профиль Отправить личное сообщение  
 
   Похожие торренты   Автор   Торрент   Размер 
В этой теме нет новых непрочитанных сообщений. День Святого Валентина / Valentine [ужасы, триллер, детектив, 2001] BDRip 1080p, Dub

salma3

0 | 0

9.26 ГБ

В этой теме нет новых непрочитанных сообщений. Я ненавижу день Святого Валентина / I Hate Valentine's Day [мелодрама, комедия, 2009] BDRip 1080p, Dub

salma3

0 | 0

8.15 ГБ

В этой теме нет новых непрочитанных сообщений. Другие / The Others [ужасы, триллер, драма, 2001] BDRip 1080p, Dub

salma3

0 | 0

7.76 ГБ

В этой теме нет новых непрочитанных сообщений. Джиперс Криперс / Jeepers Creepers [ужасы, триллер, драма, 2001] BDRip 1080p, Dub [Remastered]

salma3

0 | 0

11.64 ГБ

В этой теме нет новых непрочитанных сообщений. Джиперс Криперс / Jeepers Creepers [ужасы, триллер, 2001] BDRip-AVC, Dub [Remastered]

salma3

0 | 0

3.52 ГБ

В этой теме нет новых непрочитанных сообщений. Дагон / Dagon (Стюарт Гордон) [2001 г., ужасы, мистика, триллер, фэнтези, детектив, BDRip 1080p] P, P2, A

zorgi

0 | 0

12.91 ГБ

В этой теме нет новых непрочитанных сообщений. Мой кровавый Валентин / My Bloody Valentine [ужасы, детектив, триллер, 1981] BDRip 720p, Dvo [Extended Cut]

salma3

0 | 0

4.37 ГБ


Начать новую тему Ответить на тему  [ 1 сообщение ] 




Для Мосгорсуда, Роскомнадзора и рекламодателей:: rstracker[собака]yandex.ru
cron