COVID-19 - Последняя информация о коронавирусе на сайте Минздрава




Торрент файл
скачать торрент магнет ссылка Добавлен: 06 мар 2019, 12:14
Размер: 7.52 ГБ
Сидеров: 0
Личеров: 0
Статус: (salma3)
Автор

СообщениеДобавлено: 06 мар 2019, 12:14 

Не в сети
Супермодератор
Аватара пользователя
Дата регистрации:
15 фев 2012, 16:44
Возраст: 30
Спасибо: 8262 / 2148
Сообщения: 96153
Год выхода: 1959
Жанр: Приключения
Режиссер: Джон Гиллермин

В ролях: Гордон Скотт, Энтони Куэйл, Сэра Шэйн, Шон Коннери, Найолл МакГиннис, Эл Мулок, Сцилла Габель.

Описание: Приключенческий фильм. Тарзан преследует четвёрку английских охотников за бриллиантами, которые убили пару местных жителей. Во время погони вверх по реке к Тарзану присоединяется американская лётчица — красавица, чей самолет разбился неподалеку. В этой ленте незадолго до прихода мировой славы снялся Шон Коннери. Когда ему предложили сыграть и в следущей ленте о Тарзане, Коннери ответил, что ничего против не имеет, но, к сожалению, его только что позвали сниматься в каком-то шпионском фильме. Это был "Доктор Но", первая история про Джеймса Бонда.



Страна: США
Продолжительность: 01:26:50
Перевод: Профессиональный (многоголосый закадровый) Многоголосый, 5 канал

Файл
Качество: BDRip 1080p
Видео: MPEG4 Video (H264), 1920x1080, 23.976fps, 12.0 Mbps
Аудио #1: Русский - Dolby AC3, 48000 Hz, 2ch, 192 kbps - Многоголосый, 5 канал
Аудио #2: Английский - Dolby AC3, 48000 Hz, 2ch, 192 kbps
Cубтитры: Английские

Формат субтитров: Softsub (SRT)

Сэмпл
General
Unique ID : 206861174855552314126927558533862350013 (0x9BA0035A6D16BAB69EC17B396AB75CBD)
Complete name : D:Torrent21959.Tarzan's.Greatest.Adventure.likko.mkv
Format : Matroska
Format version : Version 4
File size : 7.52 GiB
Duration : 1 h 26 min
Overall bit rate : 12.4 Mb/s
Movie name : 1959 Великое приключение Тарзана/likko
Encoded date : UTC 2019-03-06 05:28:35
Writing application : mkvmerge v8.3.0 ('Over the Horizon') 64bit
Writing library : libebml v1.3.1 + libmatroska v1.4.2
Cover : Yes
Attachments : cover.png

Video
ID : 1
Format : AVC
Format/Info : Advanced Video Codec
Format profile : High@L4.1
Format settings : CABAC / 4 Ref Frames
Format settings, CABAC : Yes
Format settings, ReFrames : 4 frames
Codec ID : V_MPEG4/ISO/AVC
Duration : 1 h 26 min
Bit rate : 12.0 Mb/s
Width : 1 920 pixels
Height : 1 080 pixels
Display aspect ratio : 16:9
Frame rate mode : Constant
Frame rate : 23.976 (24000/1001) FPS
Color space : YUV
Chroma subsampling : 4:2:0
Bit depth : 8 bits
Scan type : Progressive
Bits/(Pixel*Frame) : 0.241
Stream size : 7.29 GiB (97%)
Title : 1959 Великое приключение Тарзана
Writing library : x264 core 148 r2638 7599210
Encoding settings : cabac=1 / ref=4 / deblock=1:-1:-1 / analyse=0x3:0x133 / me=umh / subme=11 / psy=1 / psy_rd=1.00:0.15 / mixed_ref=1 / me_range=48 / chroma_me=1 / trellis=2 / 8x8dct=1 / cqm=0 / deadzone=21,11 / fast_pskip=0 / chroma_qp_offset=-3 / threads=18 / lookahead_threads=4 / sliced_threads=0 / nr=0 / decimate=1 / interlaced=0 / bluray_compat=0 / constrained_intra=0 / bframes=10 / b_pyramid=2 / b_adapt=2 / b_bias=0 / direct=3 / weightb=1 / open_gop=0 / weightp=2 / keyint=250 / keyint_min=23 / scenecut=40 / intra_refresh=0 / rc=2pass / mbtree=0 / bitrate=12000 / ratetol=1.0 / qcomp=0.60 / qpmin=0 / qpmax=69 / qpstep=4 / cplxblur=20.0 / qblur=0.5 / ip_ratio=1.40 / pb_ratio=1.30 / aq=2:1.00
Language : English
Default : Yes
Forced : No

Audio #1
ID : 2
Format : AC-3
Format/Info : Audio Coding 3
Commercial name : Dolby Digital
Codec ID : A_AC3
Duration : 1 h 26 min
Bit rate mode : Constant
Bit rate : 192 kb/s
Channel(s) : 2 channels
Channel layout : L R
Sampling rate : 48.0 kHz
Frame rate : 31.250 FPS (1536 SPF)
Bit depth : 16 bits
Compression mode : Lossy
Stream size : 119 MiB (2%)
Title : Многоголосый, 5 канал
Language : Russian
Service kind : Complete Main
Default : Yes
Forced : No

Audio #2
ID : 3
Format : AC-3
Format/Info : Audio Coding 3
Commercial name : Dolby Digital
Codec ID : A_AC3
Duration : 1 h 26 min
Bit rate mode : Constant
Bit rate : 192 kb/s
Channel(s) : 2 channels
Channel layout : L R
Sampling rate : 48.0 kHz
Frame rate : 31.250 FPS (1536 SPF)
Bit depth : 16 bits
Compression mode : Lossy
Stream size : 119 MiB (2%)
Language : English
Service kind : Complete Main
Default : No
Forced : No

Text
ID : 4
Format : UTF-8
Codec ID : S_TEXT/UTF8
Codec ID/Info : UTF-8 Plain Text
Duration : 1 h 26 min
Bit rate : 40 b/s
Count of elements : 1028
Stream size : 25.9 KiB (0%)
Language : English
Default : Yes
Forced : No

Menu
00:00:00.000 : en:Chapter 01
00:03:24.329 : en:Chapter 02
00:04:31.479 : en:Chapter 03
00:06:01.486 : en:Chapter 04
00:08:13.367 : en:Chapter 05
00:12:17.778 : en:Chapter 06
00:15:44.568 : en:Chapter 07
00:19:14.528 : en:Chapter 08
00:22:02.446 : en:Chapter 09
00:27:36.488 : en:Chapter 10
00:29:23.970 : en:Chapter 11
00:31:53.620 : en:Chapter 12
00:34:51.047 : en:Chapter 13
00:36:58.382 : en:Chapter 14
00:41:27.067 : en:Chapter 15
00:44:04.475 : en:Chapter 16
00:48:02.296 : en:Chapter 17
00:54:15.168 : en:Chapter 18
00:56:36.518 : en:Chapter 19
01:00:47.393 : en:Chapter 20
01:03:33.768 : en:Chapter 21
01:08:28.104 : en:Chapter 22
01:11:20.401 : en:Chapter 23
01:12:18.667 : en:Chapter 24
01:17:48.622 : en:Chapter 25
01:20:46.591 : en:Chapter 26
01:26:24.637 : en:Chapter 27
01:26:49.621 : en:Chapter 28





_________________
Проголосуй за трекер Открытый торрент трекер - RUS-MEDIA.ORG

Проголосуй Открытый торрент трекер - RUS-MEDIA.ORG


Скачать книги и аудио книги через торрент


Вернуться к началу
 Профиль Отправить личное сообщение  
 
   Похожие торренты   Автор   Торрент   Размер 
В этой теме нет новых непрочитанных сообщений. Ремо Уильямс: Приключение начинается / Remo Williams: The Adventure Begins [Боевик, приключения, комедия, 1985] BDRip 1080p, Mvo

salma3

0 | 0

8.38 ГБ

В этой теме нет новых непрочитанных сообщений. Тарзан едет в Индию / Tarzan Goes To India [Приключения, 1962] BDRip 1080p, Avo

salma3

0 | 0

6.91 ГБ

В этой теме нет новых непрочитанных сообщений. Тарзан, человек-обезьяна / Tarzan, the Ape Man [Приключения, 1981] WEB-DL 1080p, Mvo

salma3

76 | 90

12.4 ГБ

В этой теме нет новых непрочитанных сообщений. Великое молчание / Il grande silenzio [вестерн, 1968] BDRip, Mvo

salma3

6 | 0

1.45 ГБ

В этой теме нет новых непрочитанных сообщений. Приключение мальгаче / Aventure malgache [короткометражка, военный, 1944] BDRip 1080p, Mvo

salma3

0 | 0

2.23 ГБ

В этой теме нет новых непрочитанных сообщений. Величайший шоумен / The Greatest Showman [Драма, биография, мюзикл, 2017] BDRip 1080p, Mvo

salma3

41 | 26

8.2 ГБ

В этой теме нет новых непрочитанных сообщений. Тaрзан. Легенда / Thе Legend of Tarzan [драма, мелодрама, приключения, 2016] BDRip, Avo [Живов]

salma3

21 | 5

1.46 ГБ


Начать новую тему Ответить на тему  [ 1 сообщение ] 




Для Мосгорсуда, Роскомнадзора и рекламодателей:: rstracker[собака]yandex.ru
cron