COVID-19 - Последняя информация о коронавирусе на сайте Минздрава




Торрент файл
скачать торрент магнет ссылка Добавлен: 11 фев 2019, 12:18
Размер: 4.54 ГБ
Сидеров: 0
Личеров: 0
Статус: (salma3)
Автор

СообщениеДобавлено: 11 фев 2019, 12:18 

Не в сети
Супермодератор
Аватара пользователя
Дата регистрации:
15 фев 2012, 16:44
Возраст: 32
Спасибо: 8304 / 2148
Сообщения: 97126
Год выпуска: 2007
Жанр: Триллер, фэнтези, мелодрама
Режиссер: Френсис Форд Коппола

В ролях: Тим Рот, Александра Мария Лара, Бруно Ганц, Андре Хеннике, Марсель Юрес, Адриан Пинтеа, Александра Пиричи, Флорин Пирси, Мэтт Дэймон

О фильме: Фильм рассказывает историю профессора лингвистики, который, не сумев завершить труд всей своей жизни, принимает решение о самоубийстве. Но в день, когда он планировал осуществить задуманное, в него попадает молния. Вопреки всему профессору удаётся не только сохранить жизнь, но и обрести утраченную молодость. Однако он вынужден изменить имя и бежать из страны, чтобы скрыться от преследований нацистов, желающих использовать произошедший с ним феномен для создания новой человеческой расы.



Страна: Германия, США, Франция, Италия, Румыния
Продолжительность: 02:04:57
Перевод: Профессиональный [многоголосый]

Файл
Кодек: x264
Качество: BDRip 720p
Видео: MPEG-4 AVC, 3661 Кбит/с, 1280x548, 23.976 кадр/с
Аудио #1: Русский (AC3, 6 ch, 448 Кбит/с) / Профессиональный многоголосый
Аудио #2: Украинский (AC3, 6 ch, 448 Кбит/с) / Профессиональный многоголосый
Аудио #3: Английский (AC3, 6 ch, 640 Кбит/с)
Субтитры: Русские, английские

Семпл

x264 [info]: frame I:1224 Avg QP:14.38 size:137317
x264 [info]: frame P:33596 Avg QP:17.15 size: 43081
x264 [info]: frame B:144940 Avg QP:18.77 size: 12524

==================================

Уникальный идентификатор : 195357234391630839362086178578038823473 (0x92F86F4C37EE9A3C8E6CCC8E2B089A31)
Полное имя : E:MCMolodost.bez.molodosti.2007.x264.BDRip(720p)-MediaClubMolodost.bez.molodosti.2007.x264.BDRip(720p)-MediaClub.mkv
Формат : Matroska
Версия формата : Version 4 / Version 2
Размер файла : 4,54 Гбайт
Продолжительность : 2 ч. 4 м.
Общий поток : 5199 Кбит/сек
Название фильма : -= Release MediaClub =-
Дата кодирования : UTC 2014-06-24 19:21:25
Программа кодирования : mkvmerge v6.4.1 ('Omega Point') built on Sep 16 2013 22:05:10
Библиотека кодирования : libebml v1.3.0 + libmatroska v1.4.1
Attachment : Yes

Видео
Идентификатор : 1
Формат : AVC
Формат/Информация : Advanced Video Codec
Профиль формата : High@L4.1
Параметр CABAC формата : Да
Параметр ReFrames формата : 9 кадров
Идентификатор кодека : V_MPEG4/ISO/AVC
Продолжительность : 2 ч. 4 м.
Битрейт : 3661 Кбит/сек
Ширина : 1280 пикселей
Высота : 548 пикселей
Соотношение сторон : 2,35:1
Режим частоты кадров : Постоянный
Частота кадров : 23,976 кадра/сек
Цветовое пространство : YUV
Субдискретизация насыщенности : 4:2:0
Битовая глубина : 8 бит
Тип развёртки : Прогрессивная
Бит/(Пиксели*Кадры) : 0.218
Размер потока : 3,11 Гбайт (68%)
Библиотека кодирования : x264 core 142 r2409+42 04be48a tMod [8-bit@4:2:0 X86_64]
Настройки программы : cabac=1 / ref=9 / deblock=1:-3:-3 / analyse=0x3:0x133 / me=umh / subme=11 / psy=1 / fade_compensate=0.00 / psy_rd=1.00:0.10 / mixed_ref=1 / me_range=48 / chroma_me=1 / trellis=2 / 8x8dct=1 / cqm=0 / deadzone=21,11 / fast_pskip=1 / chroma_qp_offset=-3 / threads=9 / lookahead_threads=1 / sliced_threads=0 / nr=0 / decimate=0 / interlaced=0 / bluray_compat=0 / constrained_intra=0 / fgo=0 / bframes=8 / b_pyramid=2 / b_adapt=2 / b_bias=0 / direct=3 / weightb=1 / open_gop=0 / weightp=2 / keyint=250 / keyint_min=23 / scenecut=40 / intra_refresh=0 / rc=2pass / mbtree=0 / bitrate=3661 / ratetol=1.0 / qcomp=0.60 / qpmin=0:0:0 / qpmax=69:69:69 / qpstep=4 / cplxblur=20.0 / qblur=0.5 / ip_ratio=1.40 / pb_ratio=1.30 / aq=2:1.00 / aq-sensitivity=10.00 / aq-factor=1.00:1.00:1.00 / aq2=0 / aq3=0
Язык : English
Default : Да
Forced : Нет

Аудио #1
Идентификатор : 2
Формат : AC-3
Формат/Информация : Audio Coding 3
Расширение режима : CM (complete main)
Параметр Endianness формата : Big
Идентификатор кодека : A_AC3
Продолжительность : 2 ч. 4 м.
Вид битрейта : Постоянный
Битрейт : 448 Кбит/сек
Каналы : 6 каналов
Расположение каналов : Front: L C R, Side: L R, LFE
Частота : 48,0 КГц
Битовая глубина : 16 бит
Метод сжатия : С потерями
Размер потока : 400 Мбайт (9%)
Заголовок : Russian MVO | AC3 5.1 448 Kbps
Язык : Russian
Default : Да
Forced : Нет

Аудио #2
Идентификатор : 3
Формат : AC-3
Формат/Информация : Audio Coding 3
Расширение режима : CM (complete main)
Параметр Endianness формата : Big
Идентификатор кодека : A_AC3
Продолжительность : 2 ч. 4 м.
Вид битрейта : Постоянный
Битрейт : 448 Кбит/сек
Каналы : 6 каналов
Расположение каналов : Front: L C R, Side: L R, LFE
Частота : 48,0 КГц
Битовая глубина : 16 бит
Метод сжатия : С потерями
Размер потока : 400 Мбайт (9%)
Заголовок : Ukrainian MVO | AC3 5.1 448 Kbps
Язык : Ukrainian
Default : Нет
Forced : Нет

Аудио #3
Идентификатор : 4
Формат : AC-3
Формат/Информация : Audio Coding 3
Расширение режима : CM (complete main)
Параметр Endianness формата : Big
Идентификатор кодека : A_AC3
Продолжительность : 2 ч. 4 м.
Вид битрейта : Постоянный
Битрейт : 640 Кбит/сек
Каналы : 6 каналов
Расположение каналов : Front: L C R, Side: L R, LFE
Частота : 48,0 КГц
Битовая глубина : 16 бит
Метод сжатия : С потерями
Размер потока : 572 Мбайт (12%)
Заголовок : English | AC3 5.1 640 Kbps
Язык : English
Default : Нет
Forced : Нет

Текст #1
Идентификатор : 5
Формат : UTF-8
Идентификатор кодека : S_TEXT/UTF8
Идентификатор кодека/Информация : UTF-8 Plain Text
Язык : Russian
Default : Нет
Forced : Нет

Текст #2
Идентификатор : 6
Формат : UTF-8
Идентификатор кодека : S_TEXT/UTF8
Идентификатор кодека/Информация : UTF-8 Plain Text
Язык : English
Default : Нет
Forced : Нет

Меню
00:00:00.000 : en:Chapter 1
00:05:00.000 : en:Chapter 2
00:10:00.000 : en:Chapter 3
00:15:00.000 : en:Chapter 4
00:20:00.000 : en:Chapter 5
00:25:00.000 : en:Chapter 6
00:30:00.000 : en:Chapter 7
00:35:00.000 : en:Chapter 8
00:40:00.000 : en:Chapter 9
00:45:00.000 : en:Chapter 10
00:50:00.000 : en:Chapter 11
00:55:00.000 : en:Chapter 12
01:00:00.000 : en:Chapter 13
01:05:00.000 : en:Chapter 14
01:10:00.000 : en:Chapter 15
01:15:00.000 : en:Chapter 16
01:20:00.000 : en:Chapter 17
01:25:00.000 : en:Chapter 18
01:30:00.000 : en:Chapter 19
01:35:00.000 : en:Chapter 20
01:40:00.000 : en:Chapter 21
01:45:00.000 : en:Chapter 22
01:50:00.000 : en:Chapter 23
01:55:00.000 : en:Chapter 24
02:00:00.000 : en:Chapter 25



Релиз от: Rip by


_________________
Проголосуй за трекер Открытый торрент трекер - RUS-MEDIA.ORG

Проголосуй Открытый торрент трекер - RUS-MEDIA.ORG


Скачать книги и аудио книги через торрент


Вернуться к началу
 Профиль Отправить личное сообщение  
 
   Похожие торренты   Автор   Торрент   Размер 
В этой теме нет новых непрочитанных сообщений. Дикая молодость / Savage Youth [Драма, криминал, 2018] WEB-DL 1080p, Mvo

salma3

0 | 0

4.01 ГБ

В этой теме нет новых непрочитанных сообщений. Сладкоголосая птица юности / Sweet Bird of Youth [драма, 1989] WEB-DL-AVC, Dvo

salma3

0 | 0

1.85 ГБ

В этой теме нет новых непрочитанных сообщений. [RealityKings.com / MomsBangTeens.com] Alexis Fawx (Fountain of Youth Part 1) [03.12.2019, All Sex, Handjob, Blowjob, Face Sitting, Pussy Fingering, Pussy Licking, Titty Fuck, Cowgirl, Doggystyle, Missionary, Piercing, Brunette, Big Tits, 4

salma3

4 | 0

437.21 МБ

В этой теме нет новых непрочитанных сообщений. Предчувствие / Premonition [фэнтези, триллер, драма, 2007] BDRip 720p, Dub

salma3

0 | 0

4.38 ГБ

В этой теме нет новых непрочитанных сообщений. Маска / The Mask [Фэнтези, мелодрама, комедия, 1994] BDRip 720p, Mvo

salma3

0 | 0

7.77 ГБ

В этой теме нет новых непрочитанных сообщений. Маска / The Mask [фэнтези, боевик, мелодрама, 1994] BDRip 720p, Mvo [60 fps]

salma3

7 | 1

9.12 ГБ

В этой теме нет новых непрочитанных сообщений. Сидни Уайт / Sydney White [драма, мелодрама, комедия, 2007] BDRip 720p, Mvo

salma3

0 | 0

4.6 ГБ


Начать новую тему Ответить на тему  [ 1 сообщение ] 




Для Мосгорсуда, Роскомнадзора и рекламодателей:: rstracker[собака]yandex.ru
cron