COVID-19 - Последняя информация о коронавирусе на сайте Минздрава




Торрент файл
скачать торрент магнет ссылка Добавлен: 03 фев 2019, 21:36
Размер: 8.92 ГБ
Сидеров: 0
Личеров: 0
Статус: (salma3)
Автор

СообщениеДобавлено: 03 фев 2019, 21:36 

Не в сети
Супермодератор
Аватара пользователя
Дата регистрации:
15 фев 2012, 16:44
Возраст: 32
Спасибо: 8304 / 2148
Сообщения: 97126
Год выхода: 2018
Жанр: Боевик, ужасы, фантастика
Режиссер: Хо Джон-хо

В ролях: Мён Мин Ким, Ким Ин-гвон, Хери, Чхве У-щик, Пак Сон-ун, Кён Ён Ли, Пак Хи-сун, Ли До-гён, Ли Гю-бок, Хан Со-ён, Суми, Ким Ган-иль, Кан Тхэ-ён, Хон Джи-юн, Юн Бён-хи

О фильме:
1527 год. В Чосонском королевстве неспокойно. Мало того, что по стране расползается жуткая зараза, от которой люди умирают в страшных муках, так ещё и на горе Инван откуда ни возьмись появляется волосатое чудище размеров немалых и нрава злобного. Даже ходят слухи, что нет никакого чудовища, а всё это плод коллективных галлюцинаций. Расследовать загадочные события берется верный подданный, когда адский монстр начинает угрожать самому королю Чунджону и его двору.



Страна: Корея Южная
Продолжительность: 01:45:30
Перевод: Любительский двухголосый | Ворон и Wenlana

Файл
Кодек: x.264
Качество: BDRip 1080p
Видео: MPEG-4 AVC, 11.5 Mбит/с, 1920x1036, 24.000 кадр/с
Аудио #1: Русский ( АС3, 2ch, 224 Кбит/с, 48.0 KHz) Любительский (двухголосый, закадровый) Batafurai team_&_SOUND-GROUP
Аудио #2: Корейский ( АС3, 6ch, 384 Кбит/с, 48.0 KHz)
Доп. информация: Субтитры: Перевод осуществляла команда фансаб-группы "Zipper"
, Редакция и тайпсет: AL & FQ
Озвучивание: Ворон и Wenlana
Без рекламы!
Субтитры: Русские, английские
Источник: Monstrum.2018.KOREAN.1080p.BluRay.x264.DTS-FGT
General
Unique ID : 226801435439601311152208264739422624217 (0xAAA05E1AA9335F4185CE0B7FBD4659D9)
Complete name : Monstrum.2018.BDRip.1080p.mkv
Format : Matroska
Format version : Version 4 / Version 2
File size : 8.92 GiB
Duration : 1 h 45 min
Overall bit rate : 12.1 Mb/s
Encoded date : UTC 2019-02-02 21:39:55
Writing application : mkvmerge v7.1.0 ('Good Love') 64bit built on Jul 27 2014 13:06:55
Writing library : libebml v1.3.0 + libmatroska v1.4.1

Video
ID : 1
Format : AVC
Format/Info : Advanced Video Codec
Format profile : High@L4.1
Format settings, CABAC : Yes
Format settings, RefFrames : 4 frames
Codec ID : V_MPEG4/ISO/AVC
Duration : 1 h 45 min
Bit rate : 11.5 Mb/s
Width : 1 920 pixels
Height : 1 036 pixels
Display aspect ratio : 1.85:1
Frame rate mode : Constant
Frame rate : 24.000 FPS
Color space : YUV
Chroma subsampling : 4:2:0
Bit depth : 8 bits
Scan type : Progressive
Bits/(Pixel*Frame) : 0.241
Stream size : 8.47 GiB (95%)
Writing library : x264 core 148 r2748 97eaef2
Encoding settings : cabac=1 / ref=4 / deblock=1:-2:-2 / analyse=0x3:0x113 / me=umh / subme=9 / psy=1 / psy_rd=1.00:0.15 / mixed_ref=1 / me_range=16 / chroma_me=1 / trellis=2 / 8x8dct=1 / cqm=0 / deadzone=21,11 / fast_pskip=1 / chroma_qp_offset=-3 / threads=24 / lookahead_threads=3 / sliced_threads=0 / nr=0 / decimate=1 / interlaced=0 / bluray_compat=0 / constrained_intra=0 / bframes=3 / b_pyramid=2 / b_adapt=1 / b_bias=0 / direct=3 / weightb=1 / open_gop=0 / weightp=2 / keyint=250 / keyint_min=25 / scenecut=40 / intra_refresh=0 / rc_lookahead=50 / rc=2pass / mbtree=1 / bitrate=11500 / ratetol=1.0 / qcomp=0.60 / qpmin=0 / qpmax=69 / qpstep=4 / cplxblur=20.0 / qblur=0.5 / vbv_maxrate=31250 / vbv_bufsize=31250 / nal_hrd=none / filler=0 / ip_ratio=1.40 / aq=1:1.00
Language : English
Default : Yes
Forced : No

Audio #1
ID : 2
Format : AC-3
Format/Info : Audio Coding 3
Format settings, Endianness : Big
Codec ID : A_AC3
Duration : 1 h 45 min
Bit rate mode : Constant
Bit rate : 224 kb/s
Channel(s) : 2 channels
Channel positions : Front: L R
Sampling rate : 48.0 kHz
Frame rate : 31.250 FPS (1536 SPF)
Bit depth : 16 bits
Compression mode : Lossy
Stream size : 169 MiB (2%)
Title : DVO | Ворон и Wenlana
Language : Russian
Service kind : Complete Main
Default : Yes
Forced : No

Audio #2
ID : 3
Format : AC-3
Format/Info : Audio Coding 3
Format settings, Endianness : Big
Codec ID : A_AC3
Duration : 1 h 45 min
Bit rate mode : Constant
Bit rate : 384 kb/s
Channel(s) : 6 channels
Channel positions : Front: L C R, Side: L R, LFE
Sampling rate : 48.0 kHz
Frame rate : 31.250 FPS (1536 SPF)
Bit depth : 16 bits
Compression mode : Lossy
Stream size : 290 MiB (3%)
Language : Korean
Service kind : Complete Main
Default : No
Forced : No

Text #1
ID : 4
Format : UTF-8
Codec ID : S_TEXT/UTF8
Codec ID/Info : UTF-8 Plain Text
Duration : 1 h 39 min
Bit rate : 64 b/s
Count of elements : 995
Stream size : 46.9 KiB (0%)
Title : AL & FQ | фансаб-группы "Zipper"
Language : Russian
Default : No
Forced : No

Text #2
ID : 5
Format : UTF-8
Codec ID : S_TEXT/UTF8
Codec ID/Info : UTF-8 Plain Text
Duration : 1 h 40 min
Bit rate : 33 b/s
Count of elements : 863
Stream size : 24.8 KiB (0%)
Language : English
Default : No
Forced : No

Menu
00:00:00.000 : en:Chapter 01
00:03:55.000 : en:Chapter 02
00:09:28.833 : en:Chapter 03
00:15:19.125 : en:Chapter 04
00:19:05.500 : en:Chapter 05
00:26:30.875 : en:Chapter 06
00:32:49.291 : en:Chapter 07
00:37:59.250 : en:Chapter 08
00:42:13.333 : en:Chapter 09
00:47:27.375 : en:Chapter 10
00:51:53.791 : en:Chapter 11
01:01:09.500 : en:Chapter 12
01:08:35.333 : en:Chapter 13
01:13:26.125 : en:Chapter 14
01:17:36.833 : en:Chapter 15
01:20:46.416 : en:Chapter 16
01:25:47.750 : en:Chapter 17
01:30:09.583 : en:Chapter 18
01:34:30.416 : en:Chapter 19
01:41:21.875 : en:Chapter 20


_________________
Проголосуй за трекер Открытый торрент трекер - RUS-MEDIA.ORG

Проголосуй Открытый торрент трекер - RUS-MEDIA.ORG


Скачать книги и аудио книги через торрент


Вернуться к началу
 Профиль Отправить личное сообщение  
 
   Похожие торренты   Автор   Торрент   Размер 
В этой теме нет новых непрочитанных сообщений. Чудовище / Creature [ужасы, фантастика, 1985] DVDRip, Dvo

salma3

1 | 2

1.44 ГБ

В этой теме нет новых непрочитанных сообщений. Порождающая огонь / Firestarter [ужасы, фантастика, боевик, 1984] BDRip-HEVC 1080p, Dvo

salma3

0 | 0

8.63 ГБ

В этой теме нет новых непрочитанных сообщений. Безмолвный гнев / Silent Rage [ужасы, фантастика, боевик, 1982] BDRip 1080p, Dvo

salma3

0 | 0

10.19 ГБ

В этой теме нет новых непрочитанных сообщений. Хищник / The Predator [ужасы, фантастика, боевик, 2018] BDRip 1080p, Dub [Лицензия]

salma3

0 | 0

15.18 ГБ

В этой теме нет новых непрочитанных сообщений. Хищник / The Predator [Ужасы, фантастика, боевик, 2018] BDRip 1080p, Dub [Лицензия]

salma3

0 | 0

7.61 ГБ

В этой теме нет новых непрочитанных сообщений. Носитель / The Carrier [Ужасы, фантастика, боевик, 2015] WEB-DL 1080p, Dvo

salma3

0 | 0

6.72 ГБ

В этой теме нет новых непрочитанных сообщений. Инопланетянин в чужом теле / The Borrower [Ужасы, фантастика, комедия, 1991] BDRip 1080p, Dvo

salma3

0 | 0

8.31 ГБ


Начать новую тему Ответить на тему  [ 1 сообщение ] 




Для Мосгорсуда, Роскомнадзора и рекламодателей:: rstracker[собака]yandex.ru
cron