COVID-19 - Последняя информация о коронавирусе на сайте Минздрава




Торрент файл
скачать торрент магнет ссылка Добавлен: 22 янв 2019, 12:36
Размер: 34.2 ГБ
Сидеров: 0
Личеров: 0
Статус: (salma3)
Автор

СообщениеДобавлено: 22 янв 2019, 12:36 

Не в сети
Супермодератор
Аватара пользователя
Дата регистрации:
15 фев 2012, 16:44
Возраст: 31
Спасибо: 8273 / 2148
Сообщения: 96528
Год выпуска: 2018
Жанр: Фэнтези, драма, комедия
Режиссер: Терри Гиллиам

В ролях: Адам Драйвер, Джонатан Прайс, Стеллан Скарсгард, Ольга Куриленко, Жуана Рибейру, Оскар Хаенада, Джейсон Уоткинс, Серхи Лопес, Хорди Молья, Диого Андраде

О фильме:
Режиссер Тобиас Граммет, мучаясь в Испании над очередным рекламным шедевром, в поисках вдохновения отправился в деревню, где 10 лет назад снимал свой дипломный фильм — про Дон Кихота. И нашел там исполнителя главной роли — спятившего старого сапожника, уверовавшего, что он… и есть настоящий Рыцарь печального образа! Старик принял Тоби за своего верного оруженосца Санчо и насильно потащил в опасное путешествие, где реальность трансформируется в фантазию, а правду не отличить от вымысла.



Страна: Испания, Бельгия, Франция, Португалия, Великобритания
Продолжительность: 02:13:03
Перевод: Дублированный | iTunes

Файл
Качество: BDRemux 1080p
Видео: MPEG-4 AVC, 1920x1080, 32.8 Mbit/s, 24 fps
Аудио #01: 48 kHz, AC3, 5.1, 384 Kbps | iTunes | RUS
Аудио #02: 48 kHz, DTS-HD MA, 5.1, 3593 Kbps | Оригинал | ENG
Субтитры: Английские

General
Unique ID : 20128801985235139310090373132801867612 (0xF24AA8F480966ED4A658E8CF4DCFF5C)
Complete name : D:Video111The.Man.Who.Killed.Don.Quixote.2018.BDREMUX.1080p.seleZen.mkv
Format : Matroska
Format version : Version 4
File size : 34.2 GiB
Duration : 2 h 13 min
Overall bit rate mode : Variable
Overall bit rate : 36.8 Mb/s
Movie name : The Man Who Killed Don Quixote 2018 from селезень
Encoded date : UTC 2019-01-22 07:39:31
Writing application : mkvmerge v29.0.0 ('Like It Or Not') 64-bit
Writing library : libebml v1.3.6 + libmatroska v1.4.9

Video
ID : 1
Format : AVC
Format/Info : Advanced Video Codec
Format profile : High@L4.1
Format settings : CABAC / 4 Ref Frames
Format settings, CABAC : Yes
Format settings, ReFrames : 4 frames
Codec ID : V_MPEG4/ISO/AVC
Duration : 2 h 13 min
Bit rate mode : Variable
Bit rate : 32.8 Mb/s
Maximum bit rate : 36.0 Mb/s
Width : 1 920 pixels
Height : 1 080 pixels
Display aspect ratio : 16:9
Frame rate mode : Constant
Frame rate : 24.000 FPS
Color space : YUV
Chroma subsampling : 4:2:0
Bit depth : 8 bits
Scan type : Progressive
Bits/(Pixel*Frame) : 0.659
Stream size : 30.5 GiB (89%)
Language : English
Default : Yes
Forced : No

Audio #1
ID : 2
Format : AC-3
Format/Info : Audio Coding 3
Commercial name : Dolby Digital
Codec ID : A_AC3
Duration : 2 h 12 min
Bit rate mode : Constant
Bit rate : 384 kb/s
Channel(s) : 6 channels
Channel layout : L R C LFE Ls Rs
Sampling rate : 48.0 kHz
Frame rate : 31.250 FPS (1536 SPF)
Bit depth : 16 bits
Compression mode : Lossy
Stream size : 365 MiB (1%)
Title : iTunes
Language : Russian
Service kind : Complete Main
Default : Yes
Forced : Yes

Audio #2
ID : 3
Format : DTS XLL
Format/Info : Digital Theater Systems
Commercial name : DTS-HD Master Audio
Codec ID : A_DTS
Duration : 2 h 13 min
Bit rate mode : Variable
Bit rate : 3 593 kb/s
Channel(s) : 6 channels
Channel layout : C L R Ls Rs LFE
Sampling rate : 48.0 kHz
Frame rate : 93.750 FPS (512 SPF)
Bit depth : 24 bits
Compression mode : Lossless
Stream size : 3.34 GiB (10%)
Title : Original
Language : English
Default : No
Forced : No

Text
ID : 4
Format : UTF-8
Codec ID : S_TEXT/UTF8
Codec ID/Info : UTF-8 Plain Text
Duration : 2 h 12 min
Bit rate : 39 b/s
Count of elements : 1437
Stream size : 38.5 KiB (0%)
Language : English
Default : No
Forced : No

Menu
00:00:00.000 : :Capítulo 01
00:00:17.333 : :Capítulo 02
00:08:37.500 : :Capítulo 03
00:18:55.292 : :Capítulo 04
00:27:16.958 : :Capítulo 05
00:35:13.792 : :Capítulo 06
00:41:04.792 : :Capítulo 07
00:46:47.833 : :Capítulo 08
00:56:50.083 : :Capítulo 09
01:09:24.750 : :Capítulo 10
01:19:45.417 : :Capítulo 11
01:26:11.708 : :Capítulo 12
01:35:40.458 : :Capítulo 13
01:45:06.250 : :Capítulo 14
01:50:55.417 : :Capítulo 15
01:58:03.500 : :Capítulo 16
02:06:50.250 : :Capítulo 17


Релиз от:


_________________
Проголосуй за трекер Открытый торрент трекер - RUS-MEDIA.ORG

Проголосуй Открытый торрент трекер - RUS-MEDIA.ORG


Скачать книги и аудио книги через торрент


Вернуться к началу
 Профиль Отправить личное сообщение  
 
   Похожие торренты   Автор   Торрент   Размер 
В этой теме нет новых непрочитанных сообщений. Человек, который убил Дон Кихота / The Man Who Killed Don Quixote [Фэнтези, драма, комедия, 2018] BDRip 1080p, Dub [iTunes]

salma3

0 | 0

13.84 ГБ

В этой теме нет новых непрочитанных сообщений. Человек, который убил Дон Кихота / The Man Who Killed Don Quixote [Фэнтези, драма, комедия, 2018] BDRip, Dub [iTunes]

salma3

0 | 1

1.46 ГБ

В этой теме нет новых непрочитанных сообщений. Человек, который убил Дон Кихота / The Man Who Killed Don Quixote [Фэнтези, драма, комедия, 2018] BDRip, Dub [iTunes]

salma3

0 | 0

2.12 ГБ

В этой теме нет новых непрочитанных сообщений. Человек, который убил Дон Кихота / The Man Who Killed Don Quixote [Фэнтези, драма, комедия, 2018] BDRip-AVC, Dub [iTunes]

salma3

0 | 0

2.43 ГБ

В этой теме нет новых непрочитанных сообщений. Человек, который убил Гитлера и затем снежного человека / The Man Who Killed Hitler and Then The Bigfoot [Фантастика, драма, приключения, 2018] BDRip 1080p, Dub [iTunes]

salma3

3 | 0

6.71 ГБ

В этой теме нет новых непрочитанных сообщений. Человек, который убил Гитлера и затем снежного человека / The Man Who Killed Hitler and Then The Bigfoot [Фантастика, драма, приключения, 2018] BDRip, Dub [iTunes]

salma3

0 | 51

1.45 ГБ

В этой теме нет новых непрочитанных сообщений. Человек, который убил Гитлера и затем снежного человека / The Man Who Killed Hitler and Then The Bigfoot [Фантастика, драма, приключения, 2018] BDRip 720p, Dub [iTunes]

salma3

0 | 21

3.83 ГБ


Начать новую тему Ответить на тему  [ 1 сообщение ] 




Для Мосгорсуда, Роскомнадзора и рекламодателей:: rstracker[собака]yandex.ru
cron