COVID-19 - Последняя информация о коронавирусе на сайте Минздрава




Торрент файл
скачать торрент магнет ссылка Добавлен: 22 янв 2019, 12:34
Размер: 13.84 ГБ
Сидеров: 0
Личеров: 0
Статус: (salma3)
Автор

СообщениеДобавлено: 22 янв 2019, 12:34 

Не в сети
Супермодератор
Аватара пользователя
Дата регистрации:
15 фев 2012, 16:44
Возраст: 31
Спасибо: 8273 / 2148
Сообщения: 96527
Год выпуска: 2018
Жанр: Фэнтези, драма, комедия
Режиссер: Терри Гиллиам

В ролях: Адам Драйвер, Джонатан Прайс, Стеллан Скарсгард, Ольга Куриленко, Жуана Рибейру, Оскар Хаенада, Джейсон Уоткинс, Серхи Лопес, Хорди Молья, Диого Андраде

О фильме:
Режиссер Тобиас Граммет, мучаясь в Испании над очередным рекламным шедевром, в поисках вдохновения отправился в деревню, где 10 лет назад снимал свой дипломный фильм — про Дон Кихота. И нашел там исполнителя главной роли — спятившего старого сапожника, уверовавшего, что он… и есть настоящий Рыцарь печального образа! Старик принял Тоби за своего верного оруженосца Санчо и насильно потащил в опасное путешествие, где реальность трансформируется в фантазию, а правду не отличить от вымысла.



Страна: Испания, Бельгия, Франция, Португалия, Великобритания
Продолжительность: 02:13:03
Перевод: Дублированный | iTunes

Файл
Качество: BDRip 1080p
Видео: MPEG-4 AVC, 1920x804, 13 Mbit/s, 24 fps
Аудио #01: 48 kHz, AC3, 5.1, 384 Kbps | iTunes | RUS
Аудио #02: 48 kHz, DTS, 5.1, 1510 Kbps | Оригинал | ENG
Субтитры: Английские

General
Unique ID : 336881426008249690145564820166031858693 (0xFD7100AAC4A9728DCB9CCF4802325C05)
Complete name : D:Video111The.Man.Who.Killed.Don.Quixote.2018.BDRip.1080p.seleZen.mkv
Format : Matroska
Format version : Version 4
File size : 13.8 GiB
Duration : 2 h 13 min
Overall bit rate : 14.9 Mb/s
Movie name : The Man Who Killed Don Quixote 2018 from селезень
Encoded date : UTC 2019-01-22 07:14:08
Writing application : mkvmerge v29.0.0 ('Like It Or Not') 64-bit
Writing library : libebml v1.3.6 + libmatroska v1.4.9

Video
ID : 1
Format : AVC
Format/Info : Advanced Video Codec
Format profile : High@L4.1
Format settings : CABAC / 5 Ref Frames
Format settings, CABAC : Yes
Format settings, ReFrames : 5 frames
Codec ID : V_MPEG4/ISO/AVC
Duration : 2 h 13 min
Bit rate : 13.0 Mb/s
Width : 1 920 pixels
Height : 804 pixels
Display aspect ratio : 2.40:1
Frame rate mode : Constant
Frame rate : 24.000 FPS
Color space : YUV
Chroma subsampling : 4:2:0
Bit depth : 8 bits
Scan type : Progressive
Bits/(Pixel*Frame) : 0.351
Stream size : 12.1 GiB (87%)
Title : iFT
Writing library : x264 core 142 r2431+42 c69a006 tMod [8-bit@all X86_64]
Encoding settings : cabac=1 / ref=5 / deblock=1:-3:-3 / analyse=0x3:0x133 / me=umh / subme=11 / psy=1 / fade_compensate=0.00 / psy_rd=1.05:1.05 / mixed_ref=1 / me_range=48 / chroma_me=1 / trellis=2 / 8x8dct=1 / cqm=0 / deadzone=21,11 / fast_pskip=0 / chroma_qp_offset=-4 / threads=16 / lookahead_threads=2 / sliced_threads=0 / nr=0 / decimate=0 / interlaced=0 / bluray_compat=0 / constrained_intra=0 / fgo=0 / bframes=8 / b_pyramid=2 / b_adapt=2 / b_bias=0 / direct=3 / weightb=1 / open_gop=0 / weightp=2 / keyint=240 / keyint_min=24 / scenecut=40 / intra_refresh=0 / rc_lookahead=240 / rc=2pass / mbtree=0 / bitrate=13000 / ratetol=1.0 / qcomp=0.60 / qpmin=0:0:0 / qpmax=69:69:69 / qpstep=4 / cplxblur=20.0 / qblur=0.5 / vbv_maxrate=40000 / vbv_bufsize=30000 / nal_hrd=none / filler=0 / ip_ratio=1.30 / pb_ratio=1.20 / aq=2:0.68 / aq-sensitivity=10.00 / aq-factor=1.00:1.00:1.00 / aq2=0 / aq3=0
Language : English
Default : Yes
Forced : No
Color range : Limited
Color primaries : BT.709
Transfer characteristics : BT.709
Matrix coefficients : BT.709

Audio #1
ID : 2
Format : AC-3
Format/Info : Audio Coding 3
Commercial name : Dolby Digital
Codec ID : A_AC3
Duration : 2 h 12 min
Bit rate mode : Constant
Bit rate : 384 kb/s
Channel(s) : 6 channels
Channel layout : L R C LFE Ls Rs
Sampling rate : 48.0 kHz
Frame rate : 31.250 FPS (1536 SPF)
Bit depth : 16 bits
Compression mode : Lossy
Stream size : 365 MiB (3%)
Title : iTunes
Language : Russian
Service kind : Complete Main
Default : Yes
Forced : Yes

Audio #2
ID : 3
Format : DTS
Format/Info : Digital Theater Systems
Codec ID : A_DTS
Duration : 2 h 13 min
Bit rate mode : Constant
Bit rate : 1 509 kb/s
Channel(s) : 6 channels
Channel layout : C L R Ls Rs LFE
Sampling rate : 48.0 kHz
Frame rate : 93.750 FPS (512 SPF)
Bit depth : 24 bits
Compression mode : Lossy
Stream size : 1.40 GiB (10%)
Title : Original
Language : English
Default : No
Forced : No

Text
ID : 4
Format : UTF-8
Codec ID : S_TEXT/UTF8
Codec ID/Info : UTF-8 Plain Text
Duration : 2 h 12 min
Bit rate : 39 b/s
Count of elements : 1437
Stream size : 38.5 KiB (0%)
Language : English
Default : No
Forced : No

Menu
00:00:00.000 : :Capítulo 01
00:00:17.333 : :Capítulo 02
00:08:37.500 : :Capítulo 03
00:18:55.292 : :Capítulo 04
00:27:16.958 : :Capítulo 05
00:35:13.792 : :Capítulo 06
00:41:04.792 : :Capítulo 07
00:46:47.833 : :Capítulo 08
00:56:50.083 : :Capítulo 09
01:09:24.750 : :Capítulo 10
01:19:45.417 : :Capítulo 11
01:26:11.708 : :Capítulo 12
01:35:40.458 : :Capítulo 13
01:45:06.250 : :Capítulo 14
01:50:55.417 : :Capítulo 15
01:58:03.500 : :Capítulo 16
02:06:50.250 : :Capítulo 17


Релиз от:


_________________
Проголосуй за трекер Открытый торрент трекер - RUS-MEDIA.ORG

Проголосуй Открытый торрент трекер - RUS-MEDIA.ORG


Скачать книги и аудио книги через торрент


Вернуться к началу
 Профиль Отправить личное сообщение  
 
   Похожие торренты   Автор   Торрент   Размер 
В этой теме нет новых непрочитанных сообщений. Человек, который убил Дон Кихота / The Man Who Killed Don Quixote [Фэнтези, драма, комедия, 2018] BDRip, Dub [iTunes]

salma3

0 | 0

2.12 ГБ

В этой теме нет новых непрочитанных сообщений. Человек, который убил Дон Кихота / The Man Who Killed Don Quixote [Фэнтези, драма, комедия, 2018] BDRip, Dub [iTunes]

salma3

0 | 1

1.46 ГБ

В этой теме нет новых непрочитанных сообщений. Человек, который убил Дон Кихота / The Man Who Killed Don Quixote [Фэнтези, драма, комедия, 2018] BDRip-AVC, Dub [iTunes]

salma3

0 | 0

2.43 ГБ

В этой теме нет новых непрочитанных сообщений. Человек, который убил Дон Кихота / The Man Who Killed Don Quixote [Фэнтези, драма, комедия, 2018] BDRemux 1080p, Dub [iTunes]

salma3

0 | 0

34.2 ГБ

В этой теме нет новых непрочитанных сообщений. Человек, который убил Гитлера и затем снежного человека / The Man Who Killed Hitler and Then The Bigfoot [Фантастика, драма, приключения, 2018] BDRip 1080p, Dub [iTunes]

salma3

3 | 0

6.71 ГБ

В этой теме нет новых непрочитанных сообщений. Человек, который убил Гитлера и затем снежного человека / The Man Who Killed Hitler and Then The Bigfoot [Фантастика, драма, приключения, 2018] BDRip, Dub [iTunes]

salma3

0 | 51

1.45 ГБ

В этой теме нет новых непрочитанных сообщений. Человек, который убил Гитлера и затем снежного человека / The Man Who Killed Hitler and Then The Bigfoot [Фантастика, драма, приключения, 2018] BDRip 720p, Dub [iTunes]

salma3

0 | 21

3.83 ГБ


Начать новую тему Ответить на тему  [ 1 сообщение ] 




Для Мосгорсуда, Роскомнадзора и рекламодателей:: rstracker[собака]yandex.ru
cron