COVID-19 - Последняя информация о коронавирусе на сайте Минздрава




Торрент файл
скачать торрент магнет ссылка Добавлен: 22 янв 2019, 12:22
Размер: 1.63 ГБ
Сидеров: 0
Личеров: 0
Статус: (salma3)
Автор

СообщениеДобавлено: 22 янв 2019, 12:22 

Не в сети
Супермодератор
Аватара пользователя
Дата регистрации:
15 фев 2012, 16:44
Возраст: 30
Спасибо: 8263 / 2148
Сообщения: 96287
Год выхода: 2018
Жанр: Ужасы, комедия
Режиссер: Джозеф Маццаферро

В ролях: Крис Кавалье, Лиза Макконнелл, Мадлен Мерфи, Шон Майкл Глория, Стефани Таун, Гейл Йост, Джейсон Хенне, Кирни Нельсон

О фильме:
Все в городе знают историю старой тети Этель. Говорят, она делает конфеты на Хэллоуин и тыквенный пирог из детей, которых она угощает. В этот Хэллоуин соседские подростки узнают правду.



Страна: США
Продолжительность: 01:20:36
Перевод: Любительский (двухголосый закадровый) | HiWay Grope

Файл
Кодек: MPEG-4 AVC/x.264
Качество: WEBRip 720p
Видео: 1280x534, 23.976 fps, ~2699 kbps, 0.165 bit/pixel
Аудио rus: AC3, 48 kHz, 2 ch, 192 Kbps

Реклама: присутствует

Семпл

General
Unique ID : 69995742622181677441064019323161360796 (0x34A8B08E2F504EB93EF57D1F552F399C)
Complete name : D:Halloween.At.Aunt.Ethels.2018.720p.WEBRip.HiWayGropeHalloween.At.Aunt.Ethels.2018.720p.WEBRip.HiWayGrope.mkv
Format : Matroska
Format version : Version 4
File size : 1.63 GiB
Duration : 1 h 20 min
Overall bit rate : 2 892 kb/s
Encoded date : UTC 2019-01-22 06:46:45
Writing application : mkvmerge v30.0.0 ('Interstellar') 64-bit
Writing library : libebml v1.3.6 + libmatroska v1.4.9

Video
ID : 1
Format : AVC
Format/Info : Advanced Video Codec
Format profile : Main@L4.1
Format settings : CABAC / 4 Ref Frames
Format settings, CABAC : Yes
Format settings, RefFrames : 4 frames
Codec ID : V_MPEG4/ISO/AVC
Duration : 1 h 20 min
Bit rate : 2 699 kb/s
Width : 1 280 pixels
Height : 534 pixels
Display aspect ratio : 2.40:1
Frame rate mode : Constant
Frame rate : 23.976 (24000/1001) FPS
Standard : NTSC
Color space : YUV
Chroma subsampling : 4:2:0
Bit depth : 8 bits
Scan type : Progressive
Bits/(Pixel*Frame) : 0.165
Stream size : 1.52 GiB (93%)
Language : English
Default : Yes
Forced : No
Color range : Limited
Color primaries : BT.601 NTSC
Transfer characteristics : BT.601
Matrix coefficients : BT.601

Audio
ID : 2
Format : AC-3
Format/Info : Audio Coding 3
Commercial name : Dolby Digital
Codec ID : A_AC3
Duration : 1 h 20 min
Bit rate mode : Constant
Bit rate : 192 kb/s
Channel(s) : 2 channels
Channel layout : L R
Sampling rate : 48.0 kHz
Frame rate : 31.250 FPS (1536 SPF)
Bit depth : 16 bits
Compression mode : Lossy
Stream size : 111 MiB (7%)
Language : Russian
Service kind : Complete Main
Default : Yes
Forced : No



Релиз от: HiWay Grope


_________________
Проголосуй за трекер Открытый торрент трекер - RUS-MEDIA.ORG

Проголосуй Открытый торрент трекер - RUS-MEDIA.ORG


Скачать книги и аудио книги через торрент


Вернуться к началу
 Профиль Отправить личное сообщение  
 
   Похожие торренты   Автор   Торрент   Размер 
В этой теме нет новых непрочитанных сообщений. Хэллоуин у тети Этель / Halloween at Aunt Ethel's [Ужасы, комедия, 2018] WEBRip, Dvo

salma3

0 | 0

1.09 ГБ

В этой теме нет новых непрочитанных сообщений. Хэллоуин у тёти Этель / Halloween at Aunt Ethel's [ужасы, чёрная комедия, 2019] WEB-DL 1080p, Dvo

salma3

0 | 0

4.75 ГБ

В этой теме нет новых непрочитанных сообщений. Истории ужасов на Хэллоуин / Halloween Horror Tales [Ужасы, 2018] WEBRip 720p, Dvo

salma3

0 | 0

1.57 ГБ

В этой теме нет новых непрочитанных сообщений. Истории ужасов на Хэллоуин / Halloween Horror Tales [Ужасы, 2018] WEBRip, Dvo

salma3

0 | 0

1001.12 МБ

В этой теме нет новых непрочитанных сообщений. Ужастики 2: Беспокойный Хэллоуин / Goosebumps 2: Haunted Halloween [Ужасы, фэнтези, комедия, 2018] WEB-DL 720p, Dub [iTunes]

salma3

1 | 0

3.09 ГБ

В этой теме нет новых непрочитанных сообщений. Ужастики 2: Беспокойный Хэллоуин / Goosebumps 2: Haunted Halloween [Ужасы, фэнтези, комедия, 2018] BDRip 720p, Dub [Лицензия]

salma3

0 | 0

4.27 ГБ

В этой теме нет новых непрочитанных сообщений. Хэллоуин / Halloween [Ужасы, триллер, 2018] BDRip 720p, Dub [Лицензия]

salma3

0 | 0

6.2 ГБ


Начать новую тему Ответить на тему  [ 1 сообщение ] 




Для Мосгорсуда, Роскомнадзора и рекламодателей:: rstracker[собака]yandex.ru
cron