Торрент файл
скачать торрент магнет ссылка Добавлен: 11 янв 2019, 21:01
Размер: 8.64 ГБ
Сидеров: 0
Личеров: 0
Статус: (salma3)
Автор

СообщениеДобавлено: 11 янв 2019, 21:01 

Не в сети
Супермодератор
Аватара пользователя
Дата регистрации:
15 фев 2012, 16:44
Возраст: 30
Спасибо: 8093 / 2147
Сообщения: 92221
Год выпуска: 1976
Выпущено: Великобритания
Жанр: Военный, драма, экранизация
Режиссер: Стюарт Розенберг

В ролях: Фэй Данауэй, Макс фон Сюдов, Оскар Вернер, Орсон Уэллс, Джеймс Мэйсон, Малкольм МакДауэлл, Ли Грант, Хосе Феррер, Бен Газзара, Кэтрин Росс, Фернандо Рей, Сэм Уонамейкер, Линн Фредерик, Денхолм Элиот, Мария Шелл...

О фильме: Фильм снят по одноимённой книге Гордона Томаса и Макса Морган-Уиттса (1974).
1939 год. Нацисты предлагают 937 немецким евреям покинуть Германию и отправиться в Гавану. Они садятся на корабль в Гамбурге с надеждой на будущее. Но выясняется, что все это путешествие - всего лишь нацисткая пропаганда и им не будет позволено сойти на берег ни при каких условиях. Всем им предстоит вернуться назад в Германию... Из 967 пассажиров более 600 умерли в нацистких концентрационных лагерях.

Продолжительность: 02:37:53
Перевод: Профессиональный многоголосый
Субтитры: Нет
Навигация по главам: Есть

Качество: BDRip 720p
Видео: MPEG-4 AVC, 7414 Кбит/сек, 1278x718, 23,976 кадра/сек
Аудио #1: AC3, 2 ch, 192 Кбит/сек | Русский, профессиональный (многоголосый закадровый)
Аудио #2: AC3, 2 ch, 224 Кбит/сек | Английский, оригинал



x264 [info]: frame I:1474 Avg QP:16.22 size:131099
x264 [info]: frame P:45503 Avg QP:17.91 size: 72676
x264 [info]: frame B:180374 Avg QP:20.06 size: 29270
-----------------------------------------------------
Общее
Уникальный идентификатор : 177432441766360238429280375448717706096 (0x857C3ECA09C54614B0A628E183E34370)
Полное имя : Путешествие.отверженных.1976.BDRip.720p.KORSAR.mkv
Формат : Matroska
Версия формата : Version 2
Размер файла : 8,64 Гбайт
Продолжительность : 2 ч. 37 м.
Общий поток : 7833 Кбит/сек
Дата кодирования : UTC 2019-01-10 13:16:28
Программа кодирования : mkvmerge v5.8.0 ('No Sleep / Pillow') built on Sep 2 2012 15:37:04
Библиотека кодирования : libebml v1.2.3 + libmatroska v1.3.0

Видео
Идентификатор : 1
Формат : AVC
Формат/Информация : Advanced Video Codec
Профиль формата : High@L4.1
Настройки формата : CABAC / 9 Ref Frames
Параметр CABAC формата : Да
Параметр RefFrames формата : 9 кадров
Идентификатор кодека : V_MPEG4/ISO/AVC
Продолжительность : 2 ч. 37 м.
Битрейт : 7414 Кбит/сек
Ширина : 1278 пикселей
Высота : 718 пикселей
Соотношение сторон : 16:9
Режим частоты кадров : Постоянный
Частота кадров : 24,000 кадра/сек
Цветовое пространство : YUV
Субдискретизация насыщенности : 4:2:0
Битовая глубина : 8 бит
Тип развёртки : Прогрессивная
Бит/(Пиксели*Кадры) : 0.337
Размер потока : 8,01 Гбайт (93%)
Заголовок : RIP | MZMA
Библиотека кодирования : x264 core 152 r2851kMod ba24899
Настройки программы : cabac=1 / ref=9 / deblock=1:-2:-2 / analyse=0x3:0x113 / me=umh / subme=11 / psy=1 / fade_compensate=0.00 / psy_rd=1.00:0.00 / mixed_ref=1 / me_range=48 / chroma_me=1 / trellis=2 / 8x8dct=1 / cqm=0 / deadzone=21,11 / fast_pskip=0 / chroma_qp_offset=-2 / threads=6 / lookahead_threads=1 / sliced_threads=0 / nr=0 / decimate=0 / interlaced=0 / bluray_compat=0 / constrained_intra=0 / bframes=16 / b_pyramid=2 / b_adapt=2 / b_bias=0 / direct=3 / weightb=1 / open_gop=0 / weightp=2 / keyint=240 / keyint_min=24 / scenecut=40 / intra_refresh=0 / rc_lookahead=40 / rc=2pass / mbtree=0 / bitrate=7414 / ratetol=1.0 / qcomp=0.60 / qpmin=0 / qpmax=69 / qpstep=4 / cplxblur=20.0 / qblur=0.5 / vbv_maxrate=50000 / vbv_bufsize=62500 / nal_hrd=none / filler=0 / ip_ratio=1.25 / pb_ratio=1.30 / aq=3:0.70
Язык : English
По умолчанию : Да
Принудительно : Нет
Цветовой диапазон : Limited
Основные цвета : BT.709
Характеристики трансфера : BT.709
Коэффициенты матрицы : BT.709

Аудио #1
Идентификатор : 2
Формат : AC-3
Формат/Информация : Audio Coding 3
Идентификатор кодека : A_AC3
Продолжительность : 2 ч. 37 м.
Вид битрейта : Постоянный
Битрейт : 192 Кбит/сек
Каналы : 2 канала
Расположение каналов : Front: L R
Частота : 48,0 КГц
Частота кадров : 31,250 кадров/сек (1536 SPF)
Битовая глубина : 16 бит
Метод сжатия : С потерями
Размер потока : 217 Мбайт (2%)
Заголовок : MVO
Язык : Russian
По умолчанию : Да
Принудительно : Нет

Аудио #2
Идентификатор : 3
Формат : AC-3
Формат/Информация : Audio Coding 3
Идентификатор кодека : A_AC3
Продолжительность : 2 ч. 37 м.
Вид битрейта : Постоянный
Битрейт : 224 Кбит/сек
Каналы : 2 канала
Расположение каналов : Front: L R
Частота : 48,0 КГц
Частота кадров : 31,250 кадров/сек (1536 SPF)
Битовая глубина : 16 бит
Метод сжатия : С потерями
Размер потока : 253 Мбайт (3%)
Заголовок : Original
Язык : English
По умолчанию : Нет
Принудительно : Нет

Меню
00:00:00.000 : en:00:00:00.000
00:05:52.208 : en:00:05:52.208
00:15:31.250 : en:00:15:31.250
00:30:13.458 : en:00:30:13.458
00:45:13.833 : en:00:45:13.833
01:00:18.458 : en:01:00:18.458
01:13:34.292 : en:01:13:34.292
01:33:01.583 : en:01:33:01.583
01:47:34.333 : en:01:47:34.333
01:59:32.042 : en:01:59:32.042
02:18:17.542 : en:02:18:17.542
02:35:57.125 : en:02:35:57.125

Релиз от:


_________________
Проголосуй за трекер Открытый торрент трекер - RUS-MEDIA.ORG

Проголосуй Открытый торрент трекер - RUS-MEDIA.ORG


Книжный торрент трекер



Вернуться к началу
 Профиль Отправить личное сообщение  
 
   Похожие торренты   Автор   Торрент   Размер 
В этой теме нет новых непрочитанных сообщений. Асы в небе / Aces High [Военный, драма, экранизация, 1976] BDRip 720p, Dvo

salma3

0 | 0

8.47 ГБ

В этой теме нет новых непрочитанных сообщений. Путешествие на дно моря / Voyage to the Bottom of the Sea [фантастика, приключения, 1961] BDRip, Mvo

salma3

0 | 0

1.46 ГБ

В этой теме нет новых непрочитанных сообщений. Путешествие на дно моря / Voyage to the Bottom of the Sea [фантастика, приключения, 1961] BDRip, Mvo

salma3

76 | 19

1.46 ГБ

В этой теме нет новых непрочитанных сообщений. Путешествие на дно моря / Voyage to the Bottom of the Sea [фантастика, приключения, 1961] BDRip 1080p, Mvo

salma3

0 | 0

7.22 ГБ

В этой теме нет новых непрочитанных сообщений. С полудня до трех / From Noon Till Three [Мелодрама, комедия, вестерн, экранизация, 1976] BDRip 720p, Dvo

salma3

0 | 0

5.64 ГБ

В этой теме нет новых непрочитанных сообщений. Жилец / Le Locataire / The Tenant [триллер, драма, детектив, мистика, экранизация, 1976] WEB-DL 720p, Mvo

salma3

25 | 4

4.36 ГБ

В этой теме нет новых непрочитанных сообщений. Билли Бад / Billy Budd [Приключения, военный, экранизация, 1962] BDRip 720p, Mvo

salma3

0 | 0

4.66 ГБ


Начать новую тему Ответить на тему  [ 1 сообщение ] 




Для Мосгорсуда, Роскомнадзора и рекламодателей:: mosgorsud-torrent[собачка]yandex.ru
cron