COVID-19 - Последняя информация о коронавирусе на сайте Минздрава




Торрент файл
скачать торрент магнет ссылка Добавлен: 10 янв 2019, 21:07
Размер: 2.69 ГБ
Сидеров: 47
Личеров: 3
Статус: (salma3)
Автор

СообщениеДобавлено: 10 янв 2019, 21:07 

Не в сети
Супермодератор
Аватара пользователя
Дата регистрации:
15 фев 2012, 16:44
Возраст: 31
Спасибо: 8283 / 2148
Сообщения: 96789
Год выхода: 2018
Жанр: Драма, биография
Режиссер: Феликс ван Грунинген

В ролях: Стив Карелл, Тимоти Шаламе, Мора Тирни, Кристиан Конвери, Окли Булл, Кейтлин Дивер, Эми Райан, Стефани Скотт, Джулиан Уоркс, Ке Лоуренс

О фильме:
Дэвид Шефф переживает трагедию: его милый и очаровательный сын Ник стал наркоманом. Откуда взялась пагубная привычка? Ник растёт в любящей семье, он отлично учится, ни в чём не нуждается. Развод родителей прошёл спокойно. С матерью, живущей в Лос-Анджелесе, Ник общается до сих пор. Пытаясь найти ответы, Дэвид вспоминает, каким ребёнок был раньше - вдумчивым и красивым мальчиком.



Страна: США, Amazon Studios, Big Indie Pictures, Plan B Entertainment
Продолжительность: 02:00:44
Перевод: Любительский (двухголосый закадровый) | HiWay Grope

Файл
Кодек: MPEG-4 AVC/x.264
Качество: WEBRip 720p
Видео: 1280x692, 23.976 fps, ~2991 kbps, 0.141 bit/pixel
Аудио rus: AC3, 48 kHz, 2 ch, 192 Kbps

Реклама: присутствует

Семпл

General
Unique ID : 147985702131605988622704698136500910701 (0x6F55026F17C7BC2760921C264F7C3A6D)
Complete name : D:Beautiful.Boy.2018.720p.WEBRip.HiWayGropeBeautiful.Boy.2018.720p.WEBRip.HiWayGrope.mkv
Format : Matroska
Format version : Version 4
File size : 2.69 GiB
Duration : 2 h 0 min
Overall bit rate mode : Variable
Overall bit rate : 3 185 kb/s
Encoded date : UTC 2019-01-10 04:00:06
Writing application : mkvmerge v25.0.0 ('Prog Noir') 64-bit
Writing library : libebml v1.3.6 + libmatroska v1.4.9

Video
ID : 1
Format : AVC
Format/Info : Advanced Video Codec
Format profile : High@L5
Format settings : CABAC / 4 Ref Frames
Format settings, CABAC : Yes
Format settings, RefFrames : 4 frames
Codec ID : V_MPEG4/ISO/AVC
Duration : 2 h 0 min
Bit rate mode : Variable
Bit rate : 2 991 kb/s
Maximum bit rate : 12.0 Mb/s
Width : 1 280 pixels
Height : 692 pixels
Display aspect ratio : 1.85:1
Frame rate mode : Constant
Frame rate : 23.976 (24000/1001) FPS
Standard : NTSC
Color space : YUV
Chroma subsampling : 4:2:0
Bit depth : 8 bits
Scan type : Progressive
Bits/(Pixel*Frame) : 0.141
Stream size : 2.52 GiB (94%)
Language : English
Default : Yes
Forced : No
Color range : Limited
Color primaries : BT.709
Transfer characteristics : BT.709
Matrix coefficients : BT.709

Audio
ID : 2
Format : AC-3
Format/Info : Audio Coding 3
Commercial name : Dolby Digital
Codec ID : A_AC3
Duration : 2 h 0 min
Bit rate mode : Constant
Bit rate : 192 kb/s
Channel(s) : 2 channels
Channel layout : L R
Sampling rate : 48.0 kHz
Frame rate : 31.250 FPS (1536 SPF)
Bit depth : 16 bits
Compression mode : Lossy
Stream size : 166 MiB (6%)
Language : Russian
Service kind : Complete Main
Default : Yes
Forced : No



Релиз от: HiWay Grope


_________________
Проголосуй за трекер Открытый торрент трекер - RUS-MEDIA.ORG

Проголосуй Открытый торрент трекер - RUS-MEDIA.ORG


Скачать книги и аудио книги через торрент


Вернуться к началу
 Профиль Отправить личное сообщение  
 
   Похожие торренты   Автор   Торрент   Размер 
В этой теме нет новых непрочитанных сообщений. Красивый мальчик / Beautiful Boy [Драма, биография, 2018] BDRip 720p, Dub [iTunes]

salma3

0 | 0

6.89 ГБ

В этой теме нет новых непрочитанных сообщений. Красивый мальчик / Beautiful Boy [Драма, биография, 2018] BDRip, Mvo

salma3

0 | 0

2.18 ГБ

В этой теме нет новых непрочитанных сообщений. Красивый мальчик / Beautiful Boy [Драма, биография, 2018] BDRip, Dub [iTunes]

salma3

25 | 12

2.13 ГБ

В этой теме нет новых непрочитанных сообщений. Красивый мальчик / Beautiful Boy [Драма, биография, 2018] BDRip-AVC, Mvo

salma3

0 | 0

2.42 ГБ

В этой теме нет новых непрочитанных сообщений. Красивый мальчик / Beautiful Boy [Драма, биография, 2018] BDRip 1080p, Mvo

salma3

0 | 0

11.68 ГБ

В этой теме нет новых непрочитанных сообщений. Красивый мальчик / Beautiful Boy [Драма, биография, 2018] BDRip, Dub [iTunes]

salma3

26 | 9

1.46 ГБ

В этой теме нет новых непрочитанных сообщений. Красивый мальчик / Beautiful Boy [Драма, биография, 2018] BDRemux 1080p, Dub [iTunes]

salma3

0 | 0

28.39 ГБ


Начать новую тему Ответить на тему  [ 1 сообщение ] 




Для Мосгорсуда, Роскомнадзора и рекламодателей:: rstracker[собака]yandex.ru
cron