COVID-19 - Последняя информация о коронавирусе на сайте Минздрава




Торрент файл
скачать торрент магнет ссылка Добавлен: 05 янв 2019, 12:25
Размер: 24.27 ГБ
Сидеров: 0
Личеров: 0
Статус: (salma3)
Автор

СообщениеДобавлено: 05 янв 2019, 12:25 

В сети
Супермодератор
Аватара пользователя
Дата регистрации:
15 фев 2012, 16:44
Возраст: 31
Спасибо: 8273 / 2148
Сообщения: 96527
Год выхода: 2018
Жанр: боевик, фантастика
Режиссер: Карл Страти

В ролях: Стивен Огг, Элис Лоу, Генри Даутуэйт, Кейт Куган, Шарлетт Килби, Сид Феникс

Описание: Очнувшись, Трой Холлоуэй осознает, что находится в шаттле, направляющемся в сторону солнца. Командир Робертс вместе с командой уже мчится ему на помощь, однако Холлоуэй после недавней потери сына не особо жаждет спасения. Тем не менее командир не позволяет ему спокойно ждать смерти и всячески поддерживает его с помощью слабой радиосвязи, полный решимости вытащить Троя из этого ада.



Страна: Великобритания
Продолжительность: 01:31:55
Перевод: любительский (двухголосый закадровый) HiWay Grope
Субтитры: английские

Файл
Качество: BDRemux 1080р
Видео: MPEG-4 AVC, 1920:1080, 33.5 Mb/s, 24.000 fps
Аудио 1: АС3, 6 ch, 48 kHz, 384 kbps HiWay Grope
Аудио 2: DTS-HD MA, 6 ch, 48 kHz, 3840 kbps, 24-bit (DTS Core 6 ch, 48 kHz, 1509 kbps) English

General
Unique ID : 238182864790927845384518794133530830881 (0xB33059E53BD2A9C116A32120E3C96821)
Complete name : Solis.2018.REMUX.mkv
Format : Matroska
Format version : Version 4 / Version 2
File size : 24.3 GiB
Duration : 1 h 31 min
Overall bit rate mode : Variable
Overall bit rate : 37.8 Mb/s
Encoded date : UTC 2019-01-05 02:44:35
Writing application : mkvmerge v20.0.0 ('I Am The Sun') 64-bit
Writing library : libebml v1.3.5 + libmatroska v1.4.8

Video
ID : 1
Format : AVC
Format/Info : Advanced Video Codec
Format profile : High@L4.1
Format settings : CABAC / 4 Ref Frames
Format settings, CABAC : Yes
Format settings, RefFrames : 4 frames
Codec ID : V_MPEG4/ISO/AVC
Duration : 1 h 31 min
Bit rate mode : Variable
Bit rate : 33.5 Mb/s
Maximum bit rate : 36.0 Mb/s
Width : 1 920 pixels
Height : 1 080 pixels
Display aspect ratio : 16:9
Frame rate mode : Constant
Frame rate : 24.000 FPS
Color space : YUV
Chroma subsampling : 4:2:0
Bit depth : 8 bits
Scan type : Progressive
Bits/(Pixel*Frame) : 0.674
Stream size : 21.5 GiB (89%)
Language : English
Default : Yes
Forced : No

Audio #1
ID : 2
Format : AC-3
Format/Info : Audio Coding 3
Codec ID : A_AC3
Duration : 1 h 31 min
Bit rate mode : Constant
Bit rate : 384 kb/s
Channel(s) : 6 channels
Channel positions : Front: L C R, Side: L R, LFE
Sampling rate : 48.0 kHz
Frame rate : 31.250 FPS (1536 SPF)
Bit depth : 16 bits
Compression mode : Lossy
Stream size : 252 MiB (1%)
Title : HiWay Grope
Language : Russian
Service kind : Complete Main
Default : Yes
Forced : No

Audio #2
ID : 3
Format : DTS
Format/Info : Digital Theater Systems
Format profile : MA / Core
Codec ID : A_DTS
Duration : 1 h 31 min
Bit rate mode : Variable / Constant
Bit rate : 3 840 kb/s / 1 509 kb/s
Channel(s) : 6 channels
Channel positions : Front: L C R, Side: L R, LFE
Sampling rate : 48.0 kHz
Frame rate : 93.750 FPS (512 SPF)
Bit depth : 24 bits
Compression mode : Lossless / Lossy
Stream size : 2.49 GiB (10%)
Language : English
Default : No
Forced : No

Text
ID : 4
Format : UTF-8
Codec ID : S_TEXT/UTF8
Codec ID/Info : UTF-8 Plain Text
Duration : 1 h 27 min
Bit rate : 53 b/s
Count of elements : 1053
Stream size : 34.7 KiB (0%)
Language : English
Default : No
Forced : No

Menu
00:00:00.000 : en:Opening Credits
00:03:02.625 : en:Mayday
00:07:34.625 : en:No Coordinates
00:12:27.625 : en:Self-Analysis
00:17:46.833 : en:Let Go
00:23:37.000 : en:Thermal Shock
00:27:23.000 : en:Shutdown of the Cooling System
00:29:26.875 : en:The Splitter
00:34:53.458 : en:Struck
00:38:09.500 : en:What are you doing?
00:41:50.458 : en:Rising Temperatures
00:45:39.292 : en:Memories
00:48:38.625 : en:Pointless
00:53:55.125 : en:I'm Sorry
01:00:34.625 : en:The only Chance
01:05:33.458 : en:Space walk
01:13:24.208 : en:Polarizing filter
01:18:52.958 : en:Don't Give Up!
01:22:58.250 : en:The Connection is Online
01:28:14.625 : en:End Credits


_________________
Проголосуй за трекер Открытый торрент трекер - RUS-MEDIA.ORG

Проголосуй Открытый торрент трекер - RUS-MEDIA.ORG


Скачать книги и аудио книги через торрент


Вернуться к началу
 Профиль Отправить личное сообщение  
 
   Похожие торренты   Автор   Торрент   Размер 
В этой теме нет новых непрочитанных сообщений. Солнце / Solis [Фантастика, драма, 2018] WEBRip, Dvo

salma3

0 | 0

1.21 ГБ

В этой теме нет новых непрочитанных сообщений. Солнце / Solis [Фантастика, драма, 2018] WEBRip 720p, Dvo

salma3

295 | 58

2.02 ГБ

В этой теме нет новых непрочитанных сообщений. Класс 1999 / Class of 1999 [ужасы, фантастика, боевик, 1990] BDRemux 1080р, Dvo

salma3

11 | 3

22.35 ГБ

В этой теме нет новых непрочитанных сообщений. Класс 1999 / Class of 1999 [Фантастика, боевик, ужасы, 1990] BDRemux 1080р, Dvo

salma3

4 | 22

23.8 ГБ

В этой теме нет новых непрочитанных сообщений. Операция в Красном море / Hong hai xing dong / Operation Red Sea [Боевик, военный, 2018] BDRemux 1080р, Dvo

salma3

0 | 0

32.49 ГБ

В этой теме нет новых непрочитанных сообщений. Первому игроку приготовиться / Ready Player One [Фантастика, боевик, приключения, 2018] BDRemux 1080р, Dub [3D-Video] [Лицензия]

salma3

0 | 1

37.89 ГБ

В этой теме нет новых непрочитанных сообщений. Судорги / Shivers [ужасы, фантастика, 1975] BDRemux 1080р, Dvo

salma3

3 | 2

22.09 ГБ


Начать новую тему Ответить на тему  [ 1 сообщение ] 




Для Мосгорсуда, Роскомнадзора и рекламодателей:: rstracker[собака]yandex.ru
cron