COVID-19 - Последняя информация о коронавирусе на сайте Минздрава




Торрент файл
скачать торрент магнет ссылка Добавлен: 02 янв 2019, 21:25
Размер: 30.74 ГБ
Сидеров: 0
Личеров: 0
Статус: (salma3)
Автор

СообщениеДобавлено: 02 янв 2019, 21:25 

Не в сети
Супермодератор
Аватара пользователя
Дата регистрации:
15 фев 2012, 16:44
Возраст: 31
Спасибо: 8273 / 2148
Сообщения: 96527
Год выхода: 1975
Жанр: комедия, драма
Режиссер: Хэл Эшби

В ролях: Уоррен Битти, Джули Кристи, Голди Хоун, Ли Грант, Джек Уорден, Тони Билл, Джордж Ферт, Джей Робинсон, Энн Уэлдон, Луана Андерс, Кэрри Фишер

О фильме: Обаятельный и очень модный парикмахер из Беверли-Хиллз с блеском обслуживает свою женскую клиентуру. Но дело в том, что симпатичные клиентки с большей готовностью залезают к нему в постель, чем под сушку…



Страна: США
Продолжительность: 01:50:15
Перевод 1: Профессиональный (многоголосый закадровый)
Перевод 2: Профессиональный (многоголосый закадровый) 1 канал
Субтитры: английские

Файл
Качество: BDRemux 1080р
Видео: MPEG-4 AVC, 35.9 Мбит/с, 1920x1080
Аудио 1: Русский (АС3, 2 ch, 192 Кбит/с)
Аудио 2: Русский (АС3, 2 ch, 192 Кбит/с)
Аудио 3: Английский (DTS HD-MA, 6 ch, 3614 Кбит/с)

Полное имя : SHAMPOO.1975.BluRay.1080p.DTS-HD.MA.5.1.AVC.REMUX.mkv
Формат : Matroska
Версия формата : Version 4 / Version 2
Размер файла : 30,7 Гбайт
Продолжительность : 1 ч. 50 м.
Режим общего битрейта : Переменный
Общий поток : 39,9 Мбит/сек
Дата кодирования : UTC 2018-12-19 09:24:54
Программа кодирования : mkvmerge v9.3.1 ('Mask Machine') 32bit
Библиотека кодирования : libebml v1.3.4 + libmatroska v1.4.5

Видео
Идентификатор : 1
Формат : AVC
Формат/Информация : Advanced Video Codec
Профиль формата : High@L4.1
Параметр CABAC формата : Да
Параметр ReFrames формата : 4 кадра
Идентификатор кодека : V_MPEG4/ISO/AVC
Продолжительность : 1 ч. 50 м.
Вид битрейта : Переменный
Битрейт : 35,9 Мбит/сек
Максимальный битрейт : 37,0 Мбит/сек
Ширина : 1920 пикселей
Высота : 1080 пикселей
Соотношение сторон : 16:9
Режим частоты кадров : Постоянный
Частота кадров : 23,976 (24000/1001) кадра/сек
Цветовое пространство : YUV
Субдискретизация насыщенности : 4:2:0
Битовая глубина : 8 бит
Тип развёртки : Прогрессивная
Бит/(Пиксели*Кадры) : 0.722
Размер потока : 27,6 Гбайт (90%)
Default : Да
Forced : Нет

Аудио #1
Идентификатор : 2
Формат : AC-3
Формат/Информация : Audio Coding 3
Расширение режима : CM (complete main)
Параметр Endianness формата : Big
Идентификатор кодека : A_AC3
Продолжительность : 1 ч. 50 м.
Вид битрейта : Постоянный
Битрейт : 192 Кбит/сек
Каналы : 2 канала
Расположение каналов : Front: L R
Частота : 48,0 КГц
Частота кадров : 31,250 кадров/сек (1536 spf)
Битовая глубина : 16 бит
Метод сжатия : С потерями
Размер потока : 151 Мбайт (0%)
Заголовок : Профессиональный (многоголосый, закадровый)
Язык : Russian
Default : Да
Forced : Да

Аудио #2
Идентификатор : 3
Формат : AC-3
Формат/Информация : Audio Coding 3
Расширение режима : CM (complete main)
Параметр Endianness формата : Big
Идентификатор кодека : A_AC3
Продолжительность : 1 ч. 50 м.
Вид битрейта : Постоянный
Битрейт : 192 Кбит/сек
Каналы : 2 канала
Расположение каналов : Front: L R
Частота : 48,0 КГц
Частота кадров : 31,250 кадров/сек (1536 spf)
Битовая глубина : 16 бит
Метод сжатия : С потерями
Размер потока : 151 Мбайт (0%)
Заголовок : Профессиональный (многоголосый закадровый) - 1 канал
Язык : Russian
Default : Нет
Forced : Нет

Аудио #3
Идентификатор : 4
Формат : DTS
Формат/Информация : Digital Theater Systems
Профиль формата : MA / Core
Режим : 16
Параметр Endianness формата : Big
Идентификатор кодека : A_DTS
Продолжительность : 1 ч. 50 м.
Вид битрейта : Переменный / Постоянный
Битрейт : 3614 Кбит/сек / 1509 Кбит/сек
Каналы : 6 каналов
Расположение каналов : Front: L C R, Side: L R, LFE
Частота : 48,0 КГц
Частота кадров : 93,750 кадра/сек (512 spf)
Битовая глубина : 24 бит
Метод сжатия : Без потерь / Lossy
Размер потока : 2,78 Гбайт (9%)
Язык : English
Default : Нет
Forced : Нет

Текст
Идентификатор : 5
Формат : PGS
Режим смешивания : zlib
Идентификатор кодека : S_HDMV/PGS
Идентификатор кодека/Информация : Picture based subtitle format used on BDs/HD-DVDs
Продолжительность : 1 ч. 49 м.
Битрейт : 11,1 Кбит/сек
Count of elements : 3532
Размер потока : 8,71 Мбайт (0%)
Язык : English
Default : Да
Forced : Нет


_________________
Проголосуй за трекер Открытый торрент трекер - RUS-MEDIA.ORG

Проголосуй Открытый торрент трекер - RUS-MEDIA.ORG


Скачать книги и аудио книги через торрент


Вернуться к началу
 Профиль Отправить личное сообщение  
 
   Похожие торренты   Автор   Торрент   Размер 
В этой теме нет новых непрочитанных сообщений. Снафф / Snuff [ужасы, 1975] BDRemux 1080р, Avo

salma3

0 | 0

16.77 ГБ

В этой теме нет новых непрочитанных сообщений. Судорги / Shivers [ужасы, фантастика, 1975] BDRemux 1080р, Dvo

salma3

3 | 2

22.09 ГБ

В этой теме нет новых непрочитанных сообщений. Бриолин 2 / Grease 2 [мюзикл, драма, комедия, 1982] BDRemux 1080р, Mvo

salma3

0 | 1

28.76 ГБ

В этой теме нет новых непрочитанных сообщений. В ночи / Into the Night [драма, комедия, триллер, 1985] BDRemux 1080р, Mvo

salma3

27 | 15

27.16 ГБ

В этой теме нет новых непрочитанных сообщений. Официант / Garçon! [драма, мелодрама, комедия, 1983] BDRemux 1080р, Mvo

salma3

0 | 1

23.5 ГБ

В этой теме нет новых непрочитанных сообщений. Скажи что-нибудь / Say Anything... [драма, мелодрама, комедия, 1989] BDRemux 1080р, Mvo

salma3

1 | 7

20.96 ГБ

В этой теме нет новых непрочитанных сообщений. Удар головой / Coup de tête [драма, комедия, спорт, 1979] BDRemux 1080р, Mvo

salma3

0 | 0

20.91 ГБ


Начать новую тему Ответить на тему  [ 1 сообщение ] 




Для Мосгорсуда, Роскомнадзора и рекламодателей:: rstracker[собака]yandex.ru
cron