COVID-19 - Последняя информация о коронавирусе на сайте Минздрава




Торрент файл
скачать торрент магнет ссылка Добавлен: 02 янв 2019, 13:05
Размер: 8.84 ГБ
Сидеров: 0
Личеров: 0
Статус: (salma3)
Автор

СообщениеДобавлено: 02 янв 2019, 13:05 

Не в сети
Супермодератор
Аватара пользователя
Дата регистрации:
15 фев 2012, 16:44
Возраст: 31
Спасибо: 8278 / 2148
Сообщения: 96624
Год выпуска: 1996
Жанр: драма, мелодрама, детектив
Режиссер: Бернардо Бертолуччи

В ролях: Шинейд Кьюсак, Джереми Айронс, Жан Маре, Донал МакКэнн, Д. У. Моффетт, Стефания Сандрелли, Рэйчел Вайс, Лив Тайлер, Карло Чекки, Джейсон Флеминг, Джозеф Пьеннес, Анна Мария Герарди, Игнацио Олива

О фильме:
Прекрасная юная американка после самоубийства матери, известной поэтессы и топ-модели, отправляется в Италию. Ей предстоит провести лето на вилле давних друзей семьи, найти своего отца и потерять девственность... Но есть еще один, быть может, главный мотив этой поездки: стремление найти разгадку непонятной записи в оставленном матерью дневнике.



Страна: Италия, Франция, Великобритания
Продолжительность: 01:58:21
Перевод: Профессиональный (многоголосый, закадровый) з/а Марафон + Профессиональный (многоголосый, закадровый) Пятый канал + Авторский (одноголосый, закадровый) Л.Володарский + Авторский (одноголосый, закадровый) К.Дьяконов

Файл
Качество: WEB-DL 1080p | Open Matte
Формат: Matroska
Видео: 1920x1080 at 23.976 fps, MPEG-4 AVC, ~10000 kbps avg
Аудио#1: Russian: 48 kHz, AC3, 2/0 (L,R) ch, ~320 kbps avg |Многоголосый закадровый, з/а Марафон|
Аудио#2: Russian: 48 kHz, AC3, 2/0 (L,R) ch, ~192 kbps avg |Многоголосый закадровый, Пятый канал|
Аудио#3: Russian: 48 kHz, AC3, 2/0 (L,R) ch, ~192 kbps avg |Авторский, Л.Володарский|
Аудио#4: Russian: 48 kHz, AC3, 2/0 (L,R) ch, ~192 kbps avg |Авторский, К.Дьяконов|
Аудио#5: English: 48 kHz, E-AC3, 3/2 (L,C,R,l,r) + LFE ch, ~640 kbps avg
Субтитры: Russian, English, Italian
***Исходник видео - Amazon.
***Сохранены и подписаны оригинальные главы.
***Релиз: Atomsk@NNMClub.
Общее
Уникальный идентификатор : 234055968395572977574887629291681977661 (0xB0158A319D562444A870A790F5C7953D)
Полное имя : Stealing.Beauty.(1996).[Open.Matte].WEBRip.1080p.NNMClub.mkv
Формат : Matroska
Версия формата : Version 2
Размер файла : 8,84 Гбайт
Продолжительность : 1 ч. 58 м.
Режим общего битрейта : Переменный
Общий поток : 10,7 Мбит/сек
Название фильма : Stealing Beauty.(1996).[Open.Matte].WEBRip.1080p.NNMClub
Дата кодирования : UTC 2017-11-25 22:57:34
Программа кодирования : mkvmerge v5.8.0 ('No Sleep / Pillow') built on Sep 2 2012 15:37:04
Библиотека кодирования : libebml v1.2.3 + libmatroska v1.3.0

Видео
Идентификатор : 1
Формат : AVC
Формат/Информация : Advanced Video Codec
Профиль формата : High@L4.0
Параметр CABAC формата : Да
Параметр ReFrames формата : 4 кадра
Идентификатор кодека : V_MPEG4/ISO/AVC
Продолжительность : 1 ч. 58 м.
Вид битрейта : Переменный
Битрейт : 8945 Кбит/сек
Максимальный битрейт : 15,0 Мбит/сек
Ширина : 1920 пикселей
Высота : 1080 пикселей
Соотношение сторон : 16:9
Режим частоты кадров : Постоянный
Частота кадров : 23,976 кадра/сек
Цветовое пространство : YUV
Субдискретизация насыщенности : 4:2:0
Битовая глубина : 8 бит
Тип развёртки : Прогрессивная
Бит/(Пиксели*Кадры) : 0.180
Размер потока : 7,40 Гбайт (84%)
Заголовок : Stealing Beauty.(1996).[Open.Matte]
Язык : English
Default : Да
Forced : Нет
Основные цвета : BT.709
Характеристики трансфера : BT.709
Коэффициенты матрицы : BT.709

Аудио #1
Идентификатор : 2
Формат : AC-3
Формат/Информация : Audio Coding 3
Расширение режима : CM (complete main)
Параметр Endianness формата : Big
Идентификатор кодека : A_AC3
Продолжительность : 1 ч. 58 м.
Вид битрейта : Постоянный
Битрейт : 320 Кбит/сек
Каналы : 2 канала
Расположение каналов : Front: L R
Частота : 48,0 КГц
Битовая глубина : 16 бит
Метод сжатия : С потерями
Размер потока : 271 Мбайт (3%)
Заголовок : AC3 2.0 @ 320 kbps - MVO, з/а Марафон
Язык : Russian
Default : Да
Forced : Нет

Аудио #2
Идентификатор : 3
Формат : AC-3
Формат/Информация : Audio Coding 3
Расширение режима : CM (complete main)
Параметр Endianness формата : Big
Идентификатор кодека : A_AC3
Продолжительность : 1 ч. 58 м.
Вид битрейта : Постоянный
Битрейт : 192 Кбит/сек
Каналы : 2 канала
Расположение каналов : Front: L R
Частота : 48,0 КГц
Битовая глубина : 16 бит
Метод сжатия : С потерями
Размер потока : 163 Мбайт (2%)
Заголовок : AC3 2.0 @ 192 kbps - MVO, 5 канал
Язык : Russian
Default : Нет
Forced : Нет

Аудио #3
Идентификатор : 4
Формат : AC-3
Формат/Информация : Audio Coding 3
Расширение режима : CM (complete main)
Параметр Endianness формата : Big
Идентификатор кодека : A_AC3
Продолжительность : 1 ч. 58 м.
Вид битрейта : Постоянный
Битрейт : 192 Кбит/сек
Каналы : 2 канала
Расположение каналов : Front: L R
Частота : 48,0 КГц
Битовая глубина : 16 бит
Метод сжатия : С потерями
Размер потока : 163 Мбайт (2%)
Заголовок : AC3 2.0 @ 192 kbps - AVO, Л. Володарский
Язык : Russian
Default : Нет
Forced : Нет

Аудио #4
Идентификатор : 5
Формат : AC-3
Формат/Информация : Audio Coding 3
Расширение режима : CM (complete main)
Параметр Endianness формата : Big
Идентификатор кодека : A_AC3
Продолжительность : 1 ч. 58 м.
Вид битрейта : Постоянный
Битрейт : 192 Кбит/сек
Каналы : 2 канала
Расположение каналов : Front: L R
Частота : 48,0 КГц
Битовая глубина : 16 бит
Метод сжатия : С потерями
Размер потока : 163 Мбайт (2%)
Заголовок : AC3 2.0 @ 192 kbps - AVO, К. Дьяконов
Язык : Russian
Default : Нет
Forced : Нет

Аудио #5
Идентификатор : 6
Формат : E-AC-3
Формат/Информация : Audio Coding 3
Параметр Endianness формата : Big
Идентификатор кодека : A_EAC3
Продолжительность : 1 ч. 58 м.
Вид битрейта : Постоянный
Битрейт : 640 Кбит/сек
Каналы : 6 каналов
Расположение каналов : Front: L C R, Side: L R, LFE
Частота : 48,0 КГц
Метод сжатия : С потерями
Размер потока : 542 Мбайт (6%)
Заголовок : E-AC3 5.1 @ 640 kbps - Original
Язык : English
Default : Нет
Forced : Нет

Текст #1
Идентификатор : 7
Формат : UTF-8
Идентификатор кодека : S_TEXT/UTF8
Идентификатор кодека/Информация : UTF-8 Plain Text
Язык : Russian
Default : Нет
Forced : Нет

Текст #2
Идентификатор : 8
Формат : UTF-8
Идентификатор кодека : S_TEXT/UTF8
Идентификатор кодека/Информация : UTF-8 Plain Text
Язык : English
Default : Нет
Forced : Нет

Текст #3
Идентификатор : 9
Формат : UTF-8
Идентификатор кодека : S_TEXT/UTF8
Идентификатор кодека/Информация : UTF-8 Plain Text
Заголовок : SDN
Язык : English
Default : Нет
Forced : Нет

Текст #4
Идентификатор : 10
Формат : UTF-8
Идентификатор кодека : S_TEXT/UTF8
Идентификатор кодека/Информация : UTF-8 Plain Text
Язык : Italian
Default : Нет
Forced : Нет

Меню
00:00:00.000 : en:Main Titles
00:03:12.161 : en:Return to Tuscany
00:09:56.161 : en:The Swimming Pool
00:15:34.161 : en:Memories of Sara
00:18:03.161 : en:A Sleepless Night
00:21:00.161 : en:In Need of a Ravisher
00:25:30.161 : en:Mad About Lucy
00:29:51.161 : en:Artist and Model
00:35:03.161 : en:Carlo
00:39:26.161 : en:Too Unnatural
00:40:15.161 : en:A Reason to Stay
00:45:07.161 : en:The Subject of Sex
00:49:04.161 : en:The Technique
00:52:52.161 : en:Looking for Niccolò
00:55:35.161 : en:The Lieutenant
00:56:44.161 : en:The Frivolity of the Dying
00:59:01.161 : en:The Pizzeria
01:01:25.161 : en:Eyes on Lucy
01:05:38.161 : en:The Reluctant Virgin
01:09:59.161 : en:Green Sandals
01:14:56.161 : en:The Donatis' Party
01:18:06.161 : en:A Dance with Carlo
01:20:51.161 : en:Someone to Take Home
01:25:57.161 : en:Something Lost
01:28:49.161 : en:A Night for Love
01:30:14.161 : en:The Next Morning
01:33:22.161 : en:Goodbye, Alex
01:37:35.161 : en:Our Secret
01:41:38.161 : en:Lucy and Osvaldo
01:46:21.161 : en:I Want to Go Back
01:48:12.161 : en:Two Virgins
01:53:10.161 : en:End Titles


_________________
Проголосуй за трекер Открытый торрент трекер - RUS-MEDIA.ORG

Проголосуй Открытый торрент трекер - RUS-MEDIA.ORG


Скачать книги и аудио книги через торрент


Вернуться к началу
 Профиль Отправить личное сообщение  
 
   Похожие торренты   Автор   Торрент   Размер 
В этой теме нет новых непрочитанных сообщений. Ускользающая красота / Stealing Beauty [драма, мелодрама, детектив, 1996] WEB-DLRip, Mvo [Open Matte]

salma3

0 | 0

1.45 ГБ

В этой теме нет новых непрочитанных сообщений. Ускользающая красота / Stealing Beauty [драма, мелодрама, детектив, 1996] WEB-DLRip-AVC, Mvo [Open Matte]

salma3

6 | 2

1.73 ГБ

В этой теме нет новых непрочитанных сообщений. Герой-одиночка / Last Man Standing [Боевик, триллер, драма, 1996] WEB-DL 1080p, Mvo [Open Matte]

salma3

0 | 0

12.54 ГБ

В этой теме нет новых непрочитанных сообщений. Сержант Билко / Sgt. Bilko [Комедия, 1996] WEB-DL 1080p, Mvo [Open Matte]

salma3

0 | 0

11.79 ГБ

В этой теме нет новых непрочитанных сообщений. Страшилы / The Frighteners [ужасы, фэнтези, комедия, 1996] WEB-DL 1080p, Mvo [Open Matte]

salma3

0 | 0

15.56 ГБ

В этой теме нет новых непрочитанных сообщений. В поисках приключений / The Quest [боевик, триллер, приключения, 1996] WEB-DL 1080p, Mvo [Open Matte]

salma3

0 | 0

11.6 ГБ

В этой теме нет новых непрочитанных сообщений. Останься / Stay [триллер, драма, детектив, 2005] WEB-DL 1080p, Mvo [Open Matte]

salma3

0 | 0

10.14 ГБ


Начать новую тему Ответить на тему  [ 1 сообщение ] 




Для Мосгорсуда, Роскомнадзора и рекламодателей:: rstracker[собака]yandex.ru
cron