COVID-19 - Последняя информация о коронавирусе на сайте Минздрава




Торрент файл
скачать торрент магнет ссылка Добавлен: 20 дек 2018, 13:42
Размер: 9.77 ГБ
Сидеров: 0
Личеров: 0
Статус: (salma3)
Автор

СообщениеДобавлено: 20 дек 2018, 13:42 

Не в сети
Супермодератор
Аватара пользователя
Дата регистрации:
15 фев 2012, 16:44
Возраст: 32
Спасибо: 8304 / 2148
Сообщения: 97085
Год выпуска: 2017
Жанр: Комедия, семейный
Режиссер: Ален Шаба

В ролях: Ален Шаба, Голшифте Фарахани, Пио Мармай, Бруно Санчес, Луиз Шаба, Одри Тоту, Давид Марсе, Грегуар Людиг, Йохан Дионне

О фильме:
Прямо перед самым Рождеством 92 000 эльфов, ответственных за изготовление новогодних подарков для малышей, сражает неведомый недуг! Санте ничего не остается, как запрячь своих летающих оленей и поспешить на Землю за лекарством, чтобы вылечить милых помощников и спасти чудесный праздник. Одна проблема — никто не признает в н​ем самого главного в мире волшебника…



Страна: Франция, Бельгия
Продолжительность: 01:40:12
Перевод: Дублированный | Лицензия

Файл
Качество:BDRip 1080p
Видео: 1920x804 (2.40:1), 24.000 fps, MPEG-4 AVC ~12.0 Мbps avg
Аудио1: 48.0 kHz, AC3 Dolby Digital, 3/2 (L,C,R,l,r) + LFE ch, ~448 kbps | RUS
Аудио2: 48.0 kHz, Digital Theater Systems, 3/2 (L,C,R,l,r) + LFE ch, ~1509 kbps | FRE
Формат субтитров: UTF-8 Plain Text



Релиз от:

General
Уникальный идентификатор : 310650103962851836102117592274796494399 (0xE9B508A381958301BF4AA81E7EEB3E3F)
Полное имя : Santa.Et.Cie.2017.BDRip.1080p-ylnian.mkv
Формат : Matroska
Версия формата : Version 4
Размер файла : 9,77 Гбайт
Продолжительность : 1 ч. 40 м.
Общий поток : 14,0 Мбит/сек
Название фильма : Santa.Et.Cie.2017.BDRip.1080p-ylnian
Дата кодирования : UTC 2018-12-19 05:46:33
Программа кодирования : mkvmerge v29.0.0 ('Like It Or Not') 64-bit
Библиотека кодирования : libebml v1.3.6 + libmatroska v1.4.9

Видео
Идентификатор : 1
Формат : AVC
Формат/Информация : Advanced Video Codec
Профиль формата : High@L4.1
Настройки формата : CABAC / 4 Ref Frames
Параметр CABAC формата : Да
Параметр RefFrames формата : 4 кадра
Идентификатор кодека : V_MPEG4/ISO/AVC
Продолжительность : 1 ч. 40 м.
Битрейт : 12,0 Мбит/сек
Ширина : 1920 пикселей
Высота : 804 пикселя
Соотношение сторон : 2,40:1
Режим частоты кадров : Постоянный
Частота кадров : 24,000 кадра/сек
Цветовое пространство : YUV
Субдискретизация насыщенности : 4:2:0
Битовая глубина : 8 бит
Тип развёртки : Прогрессивная
Бит/(Пиксели*Кадры) : 0.324
Размер потока : 8,40 Гбайт (86%)
Заголовок : Santa.Et.Cie.2017.BDRip.1080p-ylnian
Библиотека кодирования : x264 core 157 r2935 545de2f
Настройки программы : cabac=1 / ref=4 / deblock=1:-3:-3 / analyse=0x3:0x133 / me=umh / subme=11 / psy=1 / psy_rd=1.05:0.00 / mixed_ref=1 / me_range=64 / chroma_me=1 / trellis=2 / 8x8dct=1 / cqm=0 / deadzone=21,11 / fast_pskip=1 / chroma_qp_offset=-4 / threads=12 / lookahead_threads=2 / sliced_threads=0 / nr=0 / decimate=1 / interlaced=0 / bluray_compat=0 / constrained_intra=0 / bframes=9 / b_pyramid=2 / b_adapt=2 / b_bias=0 / direct=2 / weightb=1 / open_gop=0 / weightp=2 / keyint=250 / keyint_min=23 / scenecut=40 / intra_refresh=0 / rc_lookahead=250 / rc=crf / mbtree=0 / crf=18.8 / qcomp=0.80 / qpmin=0 / qpmax=69 / qpstep=4 / vbv_maxrate=50000 / vbv_bufsize=62500 / crf_max=0.0 / nal_hrd=none / filler=0 / ip_ratio=1.30 / pb_ratio=1.20 / aq=2:0.90
Язык : French
Default : Да
Forced : Да

Аудио #1
Идентификатор : 2
Формат : AC-3
Формат/Информация : Audio Coding 3
Коммерческое название : Dolby Digital
Идентификатор кодека : A_AC3
Продолжительность : 1 ч. 40 м.
Вид битрейта : Постоянный
Битрейт : 448 Кбит/сек
Каналы : 6 каналов
Channel layout : L R C LFE Ls Rs
Частота : 48,0 КГц
Частота кадров : 31,250 кадров/сек (1536 SPF)
Битовая глубина : 16 бит
Метод сжатия : С потерями
Размер потока : 321 Мбайт (3%)
Заголовок : DUB (R5) (AC3 5.1 448kbps)
Язык : Russian
Default : Да
Forced : Да

Аудио #2
Идентификатор : 3
Формат : DTS
Формат/Информация : Digital Theater Systems
Идентификатор кодека : A_DTS
Продолжительность : 1 ч. 40 м.
Вид битрейта : Постоянный
Битрейт : 1509 Кбит/сек
Каналы : 6 каналов
Channel layout : C L R Ls Rs LFE
Частота : 48,0 КГц
Частота кадров : 93,750 кадра/сек (512 SPF)
Битовая глубина : 24 бит
Метод сжатия : С потерями
Размер потока : 1,06 Гбайт (11%)
Заголовок : DTS 5.1 1509kbps
Язык : French
Default : Нет
Forced : Нет

Текст #1
Идентификатор : 4
Формат : UTF-8
Идентификатор кодека : S_TEXT/UTF8
Идентификатор кодека/Информация : UTF-8 Plain Text
Продолжительность : 10 с. 0 мс.
Битрейт : 133 бит/сек
ElementCount : 4
Размер потока : 167 байт (0%)
Заголовок : SRT Forced
Язык : French
Default : Нет
Forced : Нет

Текст #2
Идентификатор : 5
Формат : UTF-8
Идентификатор кодека : S_TEXT/UTF8
Идентификатор кодека/Информация : UTF-8 Plain Text
Продолжительность : 1 ч. 39 м.
Битрейт : 71 бит/сек
ElementCount : 1883
Размер потока : 52,3 Кбайт (0%)
Заголовок : SRT SDH
Язык : French
Default : Нет
Forced : Нет

Меню
00:00:00.000 : fr:Chapitre 01
00:09:55.708 : fr:Chapitre 02
00:17:53.083 : fr:Chapitre 03
00:26:14.083 : fr:Chapitre 04
00:31:42.458 : fr:Chapitre 05
00:40:19.875 : fr:Chapitre 06
00:48:48.250 : fr:Chapitre 07
00:57:18.458 : fr:Chapitre 08
01:06:15.333 : fr:Chapitre 09
01:13:43.041 : fr:Chapitre 10
01:21:17.250 : fr:Chapitre 11


_________________
Проголосуй за трекер Открытый торрент трекер - RUS-MEDIA.ORG

Проголосуй Открытый торрент трекер - RUS-MEDIA.ORG


Скачать книги и аудио книги через торрент


Вернуться к началу
 Профиль Отправить личное сообщение  
 
   Похожие торренты   Автор   Торрент   Размер 
В этой теме нет новых непрочитанных сообщений. Санта и компания / Santa & Cie [Комедия, семейный, 2017] BDRip, Dub [Лицензия]

salma3

0 | 0

748.1 МБ

В этой теме нет новых непрочитанных сообщений. Санта и компания / Santa & Cie [Комедия, семейный, 2017] BDRip, Dub [Лицензия]

salma3

0 | 0

1.46 ГБ

В этой теме нет новых непрочитанных сообщений. Санта Лапус 2: Санта Лапушки / Santa Paws 2: The Santa Pups [Приключения, семейный, 2012] Blu-ray EUR 1080p, Dub

salma3

0 | 0

25.85 ГБ

В этой теме нет новых непрочитанных сообщений. Хороший динозавр / The Good Dinosaur [мультфильм, фэнтези, драма, комедия, приключения, семейный, 2015] BDRip-HEVC 1080p, Dub [Лицензия]

K15

10 | 3

6.33 ГБ

В этой теме нет новых непрочитанных сообщений. Тоня против всех / I, Tonya [Комедия, драма, биография, 2017] BDRip 1080p, Dub [Лицензия]

salma3

0 | 0

9.87 ГБ

В этой теме нет новых непрочитанных сообщений. Плохая компания / Bad Company [Боевик, триллер, комедия, 2002] WEB-DL 1080p, Dub [Open Matte]

salma3

0 | 0

11.65 ГБ

В этой теме нет новых непрочитанных сообщений. Дамбо / Dumbo [Фэнтези, семейный, 2019] BDRip 1080p, Dub [Лицензия] [60 fps]

salma3

24 | 20

15.9 ГБ


Начать новую тему Ответить на тему  [ 1 сообщение ] 




Для Мосгорсуда, Роскомнадзора и рекламодателей:: rstracker[собака]yandex.ru
cron