COVID-19 - Последняя информация о коронавирусе на сайте Минздрава




Торрент файл
скачать торрент магнет ссылка Добавлен: 06 дек 2018, 12:49
Размер: 4.37 ГБ
Сидеров: 0
Личеров: 0
Статус: (salma3)
Автор

СообщениеДобавлено: 06 дек 2018, 12:49 

Не в сети
Супермодератор
Аватара пользователя
Дата регистрации:
15 фев 2012, 16:44
Возраст: 31
Спасибо: 8273 / 2148
Сообщения: 96527
Год выпуска: 2002
Жанр: Драма, приключения, биография
Выпущено: Австралия
Режиссер: Филлип Нойс

В ролях: Эверлин Сампи, Тиана Сансбэри, Лаура Монахэн, Ниджали Лоуфорд, Дэвид Галпилил, Кеннет Брана, Миарн Лоуфорд, Дебора Мэйлман, Джейсон Кларк, Наташа Вэнганин

О фильме: В начале прошлого века «цивилизованные» белые австралийцы пытались приручить своих «младших братьев», местных аборигенов. Приручив, использовать их для своих бытовых нужд. Для этого, к примеру, создавались специальные школы, в которых девочек обучали быть прислугами в обеспеченных семьях белых переселенцев. В одну из таких школ и попадают 14-летняя Молли, ее 8-летняя сестра Дэйзи и их 10-летняя кузина Трэйси. В неволе девочки долго не выдерживают, бегут обратно домой, который теперь от них — на расстоянии в полторы тысячи миль и оказываются совсем одни в пустынной местности, где только ограждение против кроликов остается их проводником по дороге в родной дом. Экранизация по произведению: Дорис Пилкингтон.



Продолжительность: 01:33:40
Перевод: Профессиональный двухголосый
Субтитры: Русские, английские

Файл
Качество: BDRip (720p)
Видео: MPEG-4 AVC, 5848 Кбит/с, 1280х542
Аудио #1: Русский - AC3, 6 ch, 384 Кбит/с
Аудио #2: Английский - AC3, 6 ch, 448 Кбит/с

[/spoiler] Сэмпл

Формат : Matroska
Версия формата : Version 2
Размер файла : 4,37 Гбайт
Продолжительность : 1 ч. 33 м.
Общий поток : 6681 Кбит/сек
Название фильма : ~V ad~
Дата кодирования : UTC 2018-12-06 01:10:38
Программа кодирования : mkvmerge v6.5.0 ('Isn't she lovely') built on Oct 20 2013 12:50:05
Библиотека кодирования : libebml v1.3.0 + libmatroska v1.4.1
Обложка : Yes
Attachments : cover.jpg

Видео
Идентификатор : 1
Формат : AVC
Формат/Информация : Advanced Video Codec
Профиль формата : High@L4.1
Настройки формата : CABAC / 11 Ref Frames
Параметр CABAC формата : Да
Параметр RefFrames формата : 11 кадров
Идентификатор кодека : V_MPEG4/ISO/AVC
Продолжительность : 1 ч. 33 м.
Битрейт : 5848 Кбит/сек
Ширина : 1280 пикселей
Высота : 542 пикселя
Соотношение сторон : 2,35:1
Режим частоты кадров : Постоянный
Частота кадров : 23,976 (24000/1001) кадра/сек
Цветовое пространство : YUV
Субдискретизация насыщенности : 4:2:0
Битовая глубина : 8 бит
Тип развёртки : Прогрессивная
Бит/(Пиксели*Кадры) : 0.352
Размер потока : 3,74 Гбайт (86%)
Заголовок : ~V~
Библиотека кодирования : x264 core 157 r2935 545de2f
Настройки программы : cabac=1 / ref=11 / deblock=1:-3:-3 / analyse=0x3:0x133 / me=umh / subme=11 / psy=1 / psy_rd=1.00:0.20 / mixed_ref=1 / me_range=32 / chroma_me=1 / trellis=2 / 8x8dct=1 / cqm=0 / deadzone=21,11 / fast_pskip=0 / chroma_qp_offset=-3 / threads=12 / lookahead_threads=1 / sliced_threads=0 / nr=0 / decimate=0 / interlaced=0 / bluray_compat=0 / constrained_intra=0 / bframes=11 / b_pyramid=2 / b_adapt=2 / b_bias=0 / direct=3 / weightb=1 / open_gop=0 / weightp=2 / keyint=240 / keyint_min=23 / scenecut=40 / intra_refresh=0 / rc=2pass / mbtree=0 / bitrate=5848 / ratetol=1.0 / qcomp=0.70 / qpmin=0 / qpmax=69 / qpstep=4 / cplxblur=20.0 / qblur=0.5 / ip_ratio=1.30 / pb_ratio=1.30 / aq=3:1.00
Язык : Английский
Default : Да
Forced : Нет

Аудио #1
Идентификатор : 2
Формат : AC-3
Формат/Информация : Audio Coding 3
Коммерческое название : Dolby Digital
Идентификатор кодека : A_AC3
Продолжительность : 1 ч. 33 м.
Вид битрейта : Постоянный
Битрейт : 384 Кбит/сек
Каналы : 6 каналов
Channel layout : L R C LFE Ls Rs
Частота : 48,0 КГц
Частота кадров : 31,250 кадров/сек (1536 SPF)
Битовая глубина : 16 бит
Метод сжатия : С потерями
Размер потока : 257 Мбайт (6%)
Заголовок : MVO
Язык : Русский
Service Kind : Complete Main
Default : Да
Forced : Да

Аудио #2
Идентификатор : 3
Формат : AC-3
Формат/Информация : Audio Coding 3
Коммерческое название : Dolby Digital
Идентификатор кодека : A_AC3
Продолжительность : 1 ч. 33 м.
Вид битрейта : Постоянный
Битрейт : 448 Кбит/сек
Каналы : 6 каналов
Channel layout : L R C LFE Ls Rs
Частота : 48,0 КГц
Частота кадров : 31,250 кадров/сек (1536 SPF)
Битовая глубина : 16 бит
Метод сжатия : С потерями
Размер потока : 300 Мбайт (7%)
Язык : Английский
Service Kind : Complete Main
Default : Нет
Forced : Нет

Текст #1
Идентификатор : 4
Формат : UTF-8
Идентификатор кодека : S_TEXT/UTF8
Идентификатор кодека/Информация : UTF-8 Plain Text
Заголовок : Full
Язык : Русский
Default : Нет
Forced : Нет

Текст #2
Идентификатор : 5
Формат : UTF-8
Идентификатор кодека : S_TEXT/UTF8
Идентификатор кодека/Информация : UTF-8 Plain Text
Заголовок : Full
Язык : Английский
Default : Нет
Forced : Нет

Меню
00:00:00.000 : en:Chapter 01
00:07:01.879 : en:Chapter 02
00:14:01.507 : en:Chapter 03
00:20:39.196 : en:Chapter 04
00:27:54.381 : en:Chapter 05
00:34:55.468 : en:Chapter 06
00:41:59.808 : en:Chapter 07
00:49:21.667 : en:Chapter 08
00:59:09.254 : en:Chapter 09
01:07:54.779 : en:Chapter 10
01:15:25.062 : en:Chapter 11
01:26:33.897 : en:Chapter 12
[spoiler="Скриншоты"]


Релиз от:


_________________
Проголосуй за трекер Открытый торрент трекер - RUS-MEDIA.ORG

Проголосуй Открытый торрент трекер - RUS-MEDIA.ORG


Скачать книги и аудио книги через торрент


Вернуться к началу
 Профиль Отправить личное сообщение  
 
   Похожие торренты   Автор   Торрент   Размер 
В этой теме нет новых непрочитанных сообщений. Клетка для кроликов / Rabbit-Proof Fence [Драма, экранизация, 2002] BDRip 720p, Dvo

salma3

0 | 0

7.81 ГБ

В этой теме нет новых непрочитанных сообщений. Фрида / Frida [драма, мелодрама, биография, 2002] BDRip 720p, Dub

salma3

6 | 2

8.82 ГБ

В этой теме нет новых непрочитанных сообщений. 25-й час / 25th Hour [драма, 2002] BDRip 720p, Dvo

salma3

0 | 0

12.79 ГБ

В этой теме нет новых непрочитанных сообщений. Кокаин / Blow [Драма, криминал, биография, реальные события, 2001] BDRip 720p, Dvo

NTL

0 | 0

7.94 ГБ

В этой теме нет новых непрочитанных сообщений. Евангелие от Матфея / Il vangelo secondo Matteo [драма, биография, история, 1964] BDRip 720p, Dvo

salma3

0 | 0

6.37 ГБ

В этой теме нет новых непрочитанных сообщений. Не волнуйся, он далеко не уйдет / Don't Worry, He Won't Get Far on Foot [Драма, комедия, биография, 2018] BDRip 720p, Dvo [iTunes]

salma3

0 | 0

5.5 ГБ

В этой теме нет новых непрочитанных сообщений. На глубине 6 футов / 6 Below: Miracle on the Mountain [триллер, драма, приключения, биография, 2017] BDRip 720p, Dub [iTunes]

salma3

81 | 32

3.45 ГБ


Начать новую тему Ответить на тему  [ 1 сообщение ] 




Для Мосгорсуда, Роскомнадзора и рекламодателей:: rstracker[собака]yandex.ru
cron