COVID-19 - Последняя информация о коронавирусе на сайте Минздрава




Торрент файл
скачать торрент магнет ссылка Добавлен: 28 ноя 2018, 12:23
Размер: 7.13 ГБ
Сидеров: 0
Личеров: 0
Статус: (salma3)
Автор

СообщениеДобавлено: 28 ноя 2018, 12:23 

Не в сети
Супермодератор
Аватара пользователя
Дата регистрации:
15 фев 2012, 16:44
Возраст: 31
Спасибо: 8280 / 2148
Сообщения: 96711
Год выхода: 1984
Жанр: комедия
Режиссер: Жорж Лотнер

В ролях: Жан-Поль Бельмондо, Софи Марсо, Мари Лафоре, Рози Варт, Мишель Бон, Мари-Кристин Декуар, Жерар Эрнандес, Элизабет Кольаммар, Флора Альберти, Марк Ламоль

О фильме:
Герой Бельмондо, преуспевающий бизнесмен и неисправимый ловелас, проводив жену в аэропорт, тут же знакомится с юной прелестницей. Он приводит ее к себе домой, но внезапно возвращается жена. Пытаясь выкрутиться, герой Бельмондо выдает девушку за свою дочь…



Страна: Франция
Продолжительность: 01:38:17
Перевод: Профессиональный (многоголосный, закадровый) + Профессиональный (двухголосый, закадровый)
Субтитры: Русские

Файл
Качество: BDRip 1080p
Формат: Matroska
Видео: AVC/H.264, 1920x816, ~9 162 kbps
Аудио 1: AC3, 2 ch, 256 kbps | Русский - DVO (Селена Интернейшнл по заказу ОРТ)
Аудио 2: AC3, 2 ch, 256 kbps | Русский – MVO (RUSCICO (DVD))
Аудио 3: AC3, 2 ch, 256 kbps | Русский – MVO (НТВ)
Аудио 4: AC3, 2 ch, 192 kbps | Русский – MVO (Останкино)
Аудио 5: AC3, 2 ch, 256 kbps | Французский (Оригинал)
Общее
Уникальный идентификатор : 179005123095730422997357481522611687409 (0x86AB21F71CA869B3A97B488AD73D0FF1)
Полное имя : I:Жан-Поль БельмондоВеселая пасха (1984)Веселая пасха. 1984 BDRip 1080p.mkv
Формат : Matroska
Версия формата : Version 4 / Version 2
Размер файла : 7,13 Гбайт
Продолжительность : 1 ч. 38 м.
Общий поток : 10,4 Мбит/сек
Название фильма : Release for Topmost
Дата кодирования : UTC 2018-11-22 15:38:18
Программа кодирования : mkvmerge v6.2.0 ('Promised Land') built on Apr 28 2013 12:22:01
Библиотека кодирования : libebml v1.3.0 + libmatroska v1.4.0
Attachment : Yes

Видео
Идентификатор : 1
Формат : AVC
Формат/Информация : Advanced Video Codec
Профиль формата : High@L4.1
Параметр CABAC формата : Да
Параметр ReFrames формата : 4 кадра
Идентификатор кодека : V_MPEG4/ISO/AVC
Продолжительность : 1 ч. 38 м.
Битрейт : 9162 Кбит/сек
Ширина : 1920 пикселей
Высота : 816 пикселей
Соотношение сторон : 2,35:1
Режим частоты кадров : Постоянный
Частота кадров : 23,976 кадра/сек
Цветовое пространство : YUV
Субдискретизация насыщенности : 4:2:0
Битовая глубина : 8 бит
Тип развёртки : Прогрессивная
Бит/(Пиксели*Кадры) : 0.244
Размер потока : 6,15 Гбайт (86%)
Заголовок : Веселая пасха. 1984 BDRip 1080p (Release for Topmost)
Библиотека кодирования : x264 core 146 r2538 121396c
Настройки программы : cabac=1 / ref=4 / deblock=1:-3:-3 / analyse=0x3:0x113 / me=umh / subme=11 / psy=1 / psy_rd=1.00:0.15 / mixed_ref=1 / me_range=32 / chroma_me=1 / trellis=2 / 8x8dct=1 / cqm=0 / deadzone=21,11 / fast_pskip=0 / chroma_qp_offset=-3 / threads=12 / lookahead_threads=2 / sliced_threads=0 / nr=0 / decimate=0 / interlaced=0 / bluray_compat=0 / constrained_intra=0 / bframes=8 / b_pyramid=2 / b_adapt=2 / b_bias=0 / direct=3 / weightb=1 / open_gop=0 / weightp=2 / keyint=240 / keyint_min=23 / scenecut=40 / intra_refresh=0 / rc_lookahead=40 / rc=2pass / mbtree=1 / bitrate=9162 / ratetol=1.0 / qcomp=0.60 / qpmin=0 / qpmax=69 / qpstep=4 / cplxblur=20.0 / qblur=0.5 / ip_ratio=1.40 / aq=1:0.90
Язык : French
Default : Да
Forced : Нет

Аудио #1
Идентификатор : 2
Формат : AC-3
Формат/Информация : Audio Coding 3
Расширение режима : CM (complete main)
Параметр Endianness формата : Big
Идентификатор кодека : A_AC3
Продолжительность : 1 ч. 38 м.
Вид битрейта : Постоянный
Битрейт : 256 Кбит/сек
Каналы : 2 канала
Расположение каналов : Front: L R
Частота : 48,0 КГц
Битовая глубина : 16 бит
Метод сжатия : С потерями
Размер потока : 180 Мбайт (2%)
Заголовок : АС3, 2 ch, 256 kbps - DVO (Селена Интернейшнл по заказу ОРТ)
Язык : Russian
Default : Да
Forced : Нет

Аудио #2
Идентификатор : 3
Формат : AC-3
Формат/Информация : Audio Coding 3
Расширение режима : CM (complete main)
Параметр Endianness формата : Big
Идентификатор кодека : A_AC3
Продолжительность : 1 ч. 38 м.
Вид битрейта : Постоянный
Битрейт : 256 Кбит/сек
Каналы : 2 канала
Расположение каналов : Front: L R
Частота : 48,0 КГц
Битовая глубина : 16 бит
Метод сжатия : С потерями
Размер потока : 180 Мбайт (2%)
Заголовок : АС3, 2 ch, 256 kbps - MVO (RUSCICO (DVD)
Язык : Russian
Default : Нет
Forced : Нет

Аудио #3
Идентификатор : 4
Формат : AC-3
Формат/Информация : Audio Coding 3
Расширение режима : CM (complete main)
Параметр Endianness формата : Big
Идентификатор кодека : A_AC3
Продолжительность : 1 ч. 38 м.
Вид битрейта : Постоянный
Битрейт : 256 Кбит/сек
Каналы : 2 канала
Расположение каналов : Front: L R
Частота : 48,0 КГц
Битовая глубина : 16 бит
Метод сжатия : С потерями
Размер потока : 180 Мбайт (2%)
Заголовок : АС3, 2 ch, 256 kbps - MVO (НТВ)
Язык : Russian
Default : Нет
Forced : Нет

Аудио #4
Идентификатор : 5
Формат : AC-3
Формат/Информация : Audio Coding 3
Расширение режима : CM (complete main)
Параметр Endianness формата : Big
Идентификатор кодека : A_AC3
Продолжительность : 1 ч. 38 м.
Вид битрейта : Постоянный
Битрейт : 192 Кбит/сек
Каналы : 2 канала
Расположение каналов : Front: L R
Частота : 48,0 КГц
Битовая глубина : 16 бит
Метод сжатия : С потерями
Размер потока : 135 Мбайт (2%)
Заголовок : AC-3, 2 ch, 192 Kbps - MVO (Останкино)
Язык : Russian
Default : Нет
Forced : Нет

Аудио #5
Идентификатор : 6
Формат : AC-3
Формат/Информация : Audio Coding 3
Расширение режима : CM (complete main)
Параметр Endianness формата : Big
Идентификатор кодека : A_AC3
Продолжительность : 1 ч. 38 м.
Вид битрейта : Постоянный
Битрейт : 256 Кбит/сек
Каналы : 2 канала
Расположение каналов : Front: L R
Частота : 48,0 КГц
Битовая глубина : 16 бит
Метод сжатия : С потерями
Размер потока : 180 Мбайт (2%)
Заголовок : АС3, 2 ch, 256 kbps - Original
Язык : French
Default : Нет
Forced : Нет

Текст
Идентификатор : 7
Формат : UTF-8
Идентификатор кодека : S_TEXT/UTF8
Идентификатор кодека/Информация : UTF-8 Plain Text
Язык : Russian
Default : Нет
Forced : Нет


_________________
Проголосуй за трекер Открытый торрент трекер - RUS-MEDIA.ORG

Проголосуй Открытый торрент трекер - RUS-MEDIA.ORG


Скачать книги и аудио книги через торрент


Вернуться к началу
 Профиль Отправить личное сообщение  
 
   Похожие торренты   Автор   Торрент   Размер 
В этой теме нет новых непрочитанных сообщений. Закусочная на колесах / Wheels On Meals [Боевик, комедия, 1984] BDRip 1080p, Mvo [Remastered]

salma3

1 | 0

12.59 ГБ

В этой теме нет новых непрочитанных сообщений. Токсичный мститель / The Toxic Avenger [комедия, ужасы, фантастика, 1984] BDRip 1080p, Mvo

salma3

19 | 10

7.11 ГБ

В этой теме нет новых непрочитанных сообщений. Ледовые пираты / The Ice Pirates [фантастика, боевик, комедия, 1984] BDRip 1080p, Mvo

salma3

0 | 0

5.89 ГБ

В этой теме нет новых непрочитанных сообщений. Закусочная на колесах / Wheels On Meals / Kuai Can Che [Боевик, комедия, 1984] BDRip 1080p, Mvo [Remastered]

salma3

0 | 0

12.19 ГБ

В этой теме нет новых непрочитанных сообщений. Гвендолин / Gwendoline [Приключения, фэнтези, 1984] BDRip 1080p, Mvo

salma3

0 | 0

6.85 ГБ

В этой теме нет новых непрочитанных сообщений. Близнец / Le jumeau [комедия, 1984] BDRip, Mvo

salma3

0 | 0

1.45 ГБ

В этой теме нет новых непрочитанных сообщений. Шина – королева джунглей / Sheena [фэнтези, приключения, 1984] BDRip 1080p, Mvo

salma3

0 | 0

9.67 ГБ


Начать новую тему Ответить на тему  [ 1 сообщение ] 




Для Мосгорсуда, Роскомнадзора и рекламодателей:: rstracker[собака]yandex.ru
cron