COVID-19 - Последняя информация о коронавирусе на сайте Минздрава




Торрент файл
скачать торрент магнет ссылка Добавлен: 25 ноя 2018, 21:12
Размер: 9.18 ГБ
Сидеров: 0
Личеров: 0
Статус: (salma3)
Автор

СообщениеДобавлено: 25 ноя 2018, 21:12 

Не в сети
Супермодератор
Аватара пользователя
Дата регистрации:
15 фев 2012, 16:44
Возраст: 30
Спасибо: 8264 / 2148
Сообщения: 96324
Год выхода: 1998
Страна: Ямайка, США
Продолжительность: 01:35:48
Жанр: драма, криминал
Режиссер: Хайп Уильямс

В ролях: DMX (Эрл Си́ммонс), Нас, Хассан Джонсон, Тэрал Хикс, Тионн «T-Boz» Уоткинс, Оливер «Пауэр» Грант, Луи Ранкин, Стэн Дрейтон, Джеймс Паррис, Метод Мэн, ...

Перевод:
- Профессиональный (двуголосый, закадровый) TV1000
- Авторский (одноголосый, закадровый) Чадов Михаил
- Авторский (одноголосый, закадровый) Сербин Юрий Владимирович

О фильме: Недавние сорванцы и отвязные хулиганы со временем превратились в самых крутых парней района. Они разучились доверять друг другу. Бандитские связи и шальные деньги развратили их души, сделали каменными сердца. Теперь эти парни живут по особым правилам и соблюдают только свои законы.
И когда им, объятым пламенем уличной войны, придется выбирать между жизнью и смертью, чистой совестью и предательством — каждый из них покажет свое истинное лицо…



Кодек: x264
Качество: BDRip 1080p
Видео: 1920x1080, 12000 kbps, 23,976 fps
Аудио #1: AC-3, 6 ch, 640 kbps (Rus) - AVO Чадов Михаил
Аудио #2: AC-3, 2 ch, 192 kbps (Rus) - DVO TV1000
Аудио #3: AC-3, 6 ch, 448 kbps (Rus) - AVO Сербин Юрий Владимирович
Аудио #4: AC-3, 6 ch, 448 kbps (Eng)
Субтитры: Английские

Эрл Си́ммонс, более известный под псевдонимом DMX — американский рэпер и актёр. Шесть его альбомов подряд дебютировали на первой строчке хит-парада Billboard 200, что является беспрецедентным феноменом.

Перевод Переводмана и озвучка Михаила Чадова доступны благодаря - Старому
Сведение с голосом - Переводман

- Belly - это Живот. Название фильма - Пасть. Почему? Потому что фразу "Belly of the Beast" обычно переводят, как "в пасти зверя"
- Чарли Грант - скорее всего бейсболист
- Бутч Кэссиди и Санденс Кид - самый кассовый вестерн про двух корешей-отморозков с Дикого Запада
- Ямайка Эстэйстс - район для верхушки среднего класса в Квинсе. Квинс - административная единица (боро) Нью-Йорка, наряду с Манхэттеном, Бруклином Бронксом и Статен-Айлендом
- Линден - город в Нью-Джерси
- "Когда дождь, нигеры мокнут" - строчка из песни "We Don't Give a Fuck" - DMX. Продекламированные стихи - тоже из песен.
- Пенн - Пенсильвания
- "Отпусти мой народ" - фраза из песни Луи Армстронга "Иди, Моисей", которую сказал Бог Моисею, чтобы тот передал Фараону

P.S: Окс говорит с дичайшим ямайским акцентом, на фоне которого отдыхает даже ебоникс. Местами вообще непонятно что он говорит и даже англосабы идут подстрочником, чтобы хоть как-то понять о чём речь. В переводе отобразить это никак невозможно, увы. Всевозможные затычки (blood clot, bomba clot) - это национальное ямайское ругательство...

P.P.S: Роджер, если кто не понял - белый...
x264 [info]: frame I:784 Avg QP:16.41 size:149522
x264 [info]: frame P:32199 Avg QP:19.65 size: 87516
x264 [info]: frame B:104850 Avg QP:21.49 size: 54190
x264 [info]: consecutive B-frames: 1.9% 4.2% 11.6% 22.7% 32.6% 12.2% 6.1% 2.8% 2.2% 2.7% 0.9%

Общее
Уникальный идентификатор : 183240731030838856747726603784572542070 (0x89DAE18F4501DF2FB4C0D8D9A5B29C76)
Полное имя : Живот (Belly) 1998 BDRip 1080p.mkv
Формат : Matroska
Версия формата : Version 2
Размер файла : 9,18 Гбайт
Продолжительность : 1 ч. 35 м.
Общий поток : 13,7 Мбит/сек
Дата кодирования : UTC 2018-11-25 12:42:38
Программа кодирования : mkvmerge v4.0.0 ('The Stars were mine') сборка от Jun 6 2010 16:18:42
Библиотека кодирования : libebml v1.0.0 + libmatroska v1.0.0

Видео
Идентификатор : 1
Формат : AVC
Формат/Информация : Advanced Video Codec
Профиль формата : High@L4.1
Параметр CABAC формата : Да
Параметр ReFrames формата : 4 кадра
Идентификатор кодека : V_MPEG4/ISO/AVC
Продолжительность : 1 ч. 35 м.
Битрейт : 12,0 Мбит/сек
Ширина : 1920 пикселей
Высота : 1080 пикселей
Соотношение сторон : 16:9
Режим частоты кадров : Постоянный
Частота кадров : 23,976 (24000/1001) кадра/сек
Цветовое пространство : YUV
Субдискретизация насыщенности : 4:2:0
Битовая глубина : 8 бит
Тип развёртки : Прогрессивная
Бит/(Пиксели*Кадры) : 0.241
Размер потока : 7,84 Гбайт (85%)
Библиотека кодирования : x264 core 146 r2538 121396c
Настройки программы : cabac=1 / ref=4 / deblock=1:-1:-1 / analyse=0x3:0x133 / me=umh / subme=11 / psy=1 / psy_rd=1.00:0.00 / mixed_ref=1 / me_range=32 / chroma_me=1 / trellis=2 / 8x8dct=1 / cqm=0 / deadzone=21,11 / fast_pskip=0 / chroma_qp_offset=-2 / threads=12 / lookahead_threads=2 / sliced_threads=0 / nr=0 / decimate=0 / interlaced=0 / bluray_compat=0 / constrained_intra=0 / bframes=10 / b_pyramid=2 / b_adapt=2 / b_bias=0 / direct=3 / weightb=1 / open_gop=0 / weightp=2 / keyint=240 / keyint_min=23 / scenecut=40 / intra_refresh=0 / rc=2pass / mbtree=0 / bitrate=12000 / ratetol=1.0 / qcomp=0.60 / qpmin=0 / qpmax=69 / qpstep=4 / cplxblur=20.0 / qblur=0.5 / ip_ratio=1.40 / pb_ratio=1.30 / aq=3:0.90
Язык : English
Default : Нет
Forced : Нет

Аудио #1
Идентификатор : 2
Формат : AC-3
Формат/Информация : Audio Coding 3
Расширение режима : CM (complete main)
Параметр Endianness формата : Big
Идентификатор кодека : A_AC3
Продолжительность : 1 ч. 35 м.
Вид битрейта : Постоянный
Битрейт : 640 Кбит/сек
Каналы : 6 каналов
Расположение каналов : Front: L C R, Side: L R, LFE
Частота : 48,0 КГц
Частота кадров : 31,250 кадров/сек (1536 spf)
Метод сжатия : С потерями
Размер потока : 439 Мбайт (5%)
Заголовок : AVO Чадов Михаил
Язык : Russian
Default : Нет
Forced : Нет

Аудио #2
Идентификатор : 3
Формат : AC-3
Формат/Информация : Audio Coding 3
Расширение режима : CM (complete main)
Параметр Endianness формата : Big
Идентификатор кодека : A_AC3
Продолжительность : 1 ч. 35 м.
Вид битрейта : Постоянный
Битрейт : 192 Кбит/сек
Каналы : 2 канала
Расположение каналов : Front: L R
Частота : 48,0 КГц
Частота кадров : 31,250 кадров/сек (1536 spf)
Метод сжатия : С потерями
Размер потока : 132 Мбайт (1%)
Заголовок : DVO TV1000
Язык : Russian
Default : Нет
Forced : Нет

Аудио #3
Идентификатор : 4
Формат : AC-3
Формат/Информация : Audio Coding 3
Расширение режима : CM (complete main)
Параметр Endianness формата : Big
Идентификатор кодека : A_AC3
Продолжительность : 1 ч. 35 м.
Вид битрейта : Постоянный
Битрейт : 448 Кбит/сек
Каналы : 6 каналов
Расположение каналов : Front: L C R, Side: L R, LFE
Частота : 48,0 КГц
Частота кадров : 31,250 кадров/сек (1536 spf)
Метод сжатия : С потерями
Размер потока : 307 Мбайт (3%)
Заголовок : AVO Сербин Юрий Владимирович
Язык : Russian
Default : Нет
Forced : Нет

Аудио #4
Идентификатор : 5
Формат : AC-3
Формат/Информация : Audio Coding 3
Расширение режима : CM (complete main)
Параметр Endianness формата : Big
Идентификатор кодека : A_AC3
Продолжительность : 1 ч. 35 м.
Вид битрейта : Постоянный
Битрейт : 448 Кбит/сек
Каналы : 6 каналов
Расположение каналов : Front: L C R, Side: L R, LFE
Частота : 48,0 КГц
Частота кадров : 31,250 кадров/сек (1536 spf)
Метод сжатия : С потерями
Размер потока : 307 Мбайт (3%)
Язык : English
Default : Нет
Forced : Нет

Текст
Идентификатор : 6
Формат : UTF-8
Идентификатор кодека : S_TEXT/UTF8
Идентификатор кодека/Информация : UTF-8 Plain Text
Язык : English
Default : Нет
Forced : Нет



_________________
Проголосуй за трекер Открытый торрент трекер - RUS-MEDIA.ORG

Проголосуй Открытый торрент трекер - RUS-MEDIA.ORG


Скачать книги и аудио книги через торрент


Вернуться к началу
 Профиль Отправить личное сообщение  
 
   Похожие торренты   Автор   Торрент   Размер 
В этой теме нет новых непрочитанных сообщений. Живот / Belly [Драма, криминал, 1998] BDRip-AVC, Dvo

salma3

7 | 24

3.05 ГБ

В этой теме нет новых непрочитанных сообщений. Живот / Belly [Драма, криминал, 1998] BDRip 720р, Dvo

salma3

21 | 5

5.78 ГБ

В этой теме нет новых непрочитанных сообщений. Живот / Belly [Драма, криминал, 1998] BDRemux 1080p, Dvo

salma3

0 | 0

18.1 ГБ

В этой теме нет новых непрочитанных сообщений. Феникс / Phoenix [триллер, криминал, драма, 1998] WEB-DL 1080p, Dvo

salma3

3 | 1

7.45 ГБ

В этой теме нет новых непрочитанных сообщений. Простой план / A Simple Plan [триллер, драма, криминал, 1998] BDRip 720p, Dvo

salma3

0 | 0

5.75 ГБ

В этой теме нет новых непрочитанных сообщений. Братья Ньютон / The Newton Boys [Боевик, драма, криминал, 1998] BDRip-AVC, Dvo

salma3

0 | 0

2.81 ГБ

В этой теме нет новых непрочитанных сообщений. Легионер / Legionnaire [Боевик, драма, приключения, 1998] BDRip 1080p, Dvo

salma3

0 | 0

7.95 ГБ


Начать новую тему Ответить на тему  [ 1 сообщение ] 




Для Мосгорсуда, Роскомнадзора и рекламодателей:: rstracker[собака]yandex.ru
cron