COVID-19 - Последняя информация о коронавирусе на сайте Минздрава




Торрент файл
скачать торрент магнет ссылка Добавлен: 16 ноя 2018, 12:23
Размер: 26.72 ГБ
Сидеров: 0
Личеров: 0
Статус: (salma3)
Автор

СообщениеДобавлено: 16 ноя 2018, 12:23 

Не в сети
Супермодератор
Аватара пользователя
Дата регистрации:
15 фев 2012, 16:44
Возраст: 32
Спасибо: 8298 / 2148
Сообщения: 97035
Год выпуска: 1992
Жанр: Триллер, экранизация
Режиссер: Барбет Шредер

В ролях: Бриджит Фонда, Дженнифер Джейсон Ли, Стивен Вебер, Питер Фридман, Стивен Тоболовски, Фрэнсис Бэй, Мишель Фарр, Тара Карсиан, Кристиана Капетильо, Джессика Ланди

О фильме: «Одинокая белая женщина ищет соседку…». Так начиналось объявление, которое Элли Джонс поместила в газету. Так начинался самый страшный кошмар в ее жизни. Застенчивая Хэди сразу понравилась гостеприимной хозяйке. Одинокие женщины делились друг с другом одеждой, духами и самыми сокровенными тайнами. Хэди хотела во всем быть похожей на свою новую подругу. И ей это удалось. Но чтобы добиться окончательного сходства, странной соседке придется забрать у Элли жизнь. Фильм снят по одноименному роману Джона Лутца.



Выпущено: США, Columbia Pictures Corporation
Продолжительность: 01:47:58
Перевод: Профессиональный (дублированный)
Перевод 2: Профессиональный (многоголосый закадровый)
Перевод 3: Профессиональный (многоголосый закадровый)
Перевод 4: Профессиональный (двухголосый закадровый) Сергей Визгунов+дама
Перевод 5: Авторский (одноголосый закадровый) Алексей Михалёв
Перевод 6: Авторский (одноголосый закадровый) Василий Горчаков
Перевод 7: Авторский (одноголосый закадровый) Владимир Сонькин
Перевод 8: Авторский (одноголосый закадровый) Сергей Кузнецов
Субтитры: русские (перевод Леонида Хмельницкого), английские, английские (SDH)
Субтитры: Русские, английские

Файл
Качество: BDRemux 1080p
Видео: AVC, 1920х1080 [16:9], 23,976 fps, 30,8 Mbps
Аудио: AC3, 2.0 ch. stereo, 48 kHz, 192 kbps - Дубляж
Аудио 2: AC3, 2.0 ch. stereo, 48 kHz, 192 kbps - MVO
Аудио 3: AC3, 2.0 ch. mono, 48 kHz, 192 kbps - MVO НТВ
Аудио 4: AC3, 2.0 ch. stereo, 48 kHz, 192 kbps - DVO Визгунов+дама
Аудио 5: AC3, 2.0 ch. mono, 48 kHz, 192 kbps - AVO Михалёв
Аудио 6: AC3, 2.0 ch. stereo, 48 kHz, 192 kbps - AVO Горчаков
Аудио 7: AC3, 2.0 ch. stereo, 48 kHz, 192 kbps - AVO Сонькин
Аудио 8: AC3, 2.0 ch. stereo, 48 kHz, 192 kbps - AVO Кузнецов
Аудио 9: DTS-HD MA, 2.0 ch. stereo, 48 kHz, 24 bit (DTS Core 2.0 ch., 48 kHz, 1509 kbps, 24 bit) - English
Аудио 10: DTS 2.0 ch., 48 kHz, 1509 kbps, 24 bit - English commentary

Общее
Уникальный идентификатор : 278375567492959162003511308745303216601 (0xD16D2F229F5EA87C6F18CFFFDCC551D9)
Полное имя : F:Single White Female [1992 BDRemux].mkv
Формат : Matroska
Версия формата : Version 4
Размер файла : 26,7 Гбайт
Продолжительность : 1 ч. 47 м.
Режим общего битрейта : Переменный
Общий поток : 35,4 Мбит/сек
Дата кодирования : UTC 2018-11-10 10:04:35
Программа кодирования : mkvmerge v19.0.0 ('Brave Captain') 32-bit
Библиотека кодирования : libebml v1.3.5 + libmatroska v1.4.8

Видео
Идентификатор : 1
Формат : AVC
Формат/Информация : Advanced Video Codec
Профиль формата : High@L4.1
Настройки формата : CABAC / 4 Ref Frames
Параметр CABAC формата : Да
Параметр RefFrames формата : 4 кадра
Идентификатор кодека : V_MPEG4/ISO/AVC
Продолжительность : 1 ч. 47 м.
Вид битрейта : Переменный
Битрейт : 30,8 Мбит/сек
Максимальный битрейт : 35,0 Мбит/сек
Ширина : 1920 пикселей
Высота : 1080 пикселей
Соотношение сторон : 16:9
Режим частоты кадров : Постоянный
Частота кадров : 23,976 (24000/1001) кадра/сек
Цветовое пространство : YUV
Субдискретизация насыщенности : 4:2:0
Битовая глубина : 8 бит
Тип развёртки : Прогрессивная
Бит/(Пиксели*Кадры) : 0.620
Размер потока : 23,2 Гбайт (87%)
Default : Да
Forced : Нет

Аудио #1
Идентификатор : 2
Формат : AC-3
Формат/Информация : Audio Coding 3
Коммерческое название : Dolby Digital
Идентификатор кодека : A_AC3
Продолжительность : 1 ч. 47 м.
Вид битрейта : Постоянный
Битрейт : 192 Кбит/сек
Каналы : 2 канала
Channel layout : L R
Частота : 48,0 КГц
Частота кадров : 31,250 кадров/сек (1536 SPF)
Битовая глубина : 16 бит
Метод сжатия : С потерями
Размер потока : 148 Мбайт (1%)
Заголовок : DUB
Язык : Russian
Default : Нет
Forced : Нет

Аудио #2
Идентификатор : 3
Формат : AC-3
Формат/Информация : Audio Coding 3
Коммерческое название : Dolby Digital
Идентификатор кодека : A_AC3
Продолжительность : 1 ч. 47 м.
Вид битрейта : Постоянный
Битрейт : 192 Кбит/сек
Каналы : 2 канала
Channel layout : L R
Частота : 48,0 КГц
Частота кадров : 31,250 кадров/сек (1536 SPF)
Битовая глубина : 16 бит
Метод сжатия : С потерями
Размер потока : 148 Мбайт (1%)
Заголовок : MVO
Язык : Russian
ServiceKind : Complete Main
Default : Нет
Forced : Нет

Аудио #3
Идентификатор : 4
Формат : AC-3
Формат/Информация : Audio Coding 3
Коммерческое название : Dolby Digital
Идентификатор кодека : A_AC3
Продолжительность : 1 ч. 47 м.
Вид битрейта : Постоянный
Битрейт : 192 Кбит/сек
Каналы : 2 канала
Channel layout : L R
Частота : 48,0 КГц
Частота кадров : 31,250 кадров/сек (1536 SPF)
Битовая глубина : 16 бит
Метод сжатия : С потерями
Размер потока : 148 Мбайт (1%)
Заголовок : MVO NTV
Язык : Russian
ServiceKind : Complete Main
Default : Нет
Forced : Нет

Аудио #4
Идентификатор : 5
Формат : AC-3
Формат/Информация : Audio Coding 3
Коммерческое название : Dolby Digital
Идентификатор кодека : A_AC3
Продолжительность : 1 ч. 47 м.
Вид битрейта : Постоянный
Битрейт : 192 Кбит/сек
Каналы : 2 канала
Channel layout : L R
Частота : 48,0 КГц
Частота кадров : 31,250 кадров/сек (1536 SPF)
Битовая глубина : 16 бит
Метод сжатия : С потерями
Размер потока : 148 Мбайт (1%)
Заголовок : DVO Vizgunov
Язык : Russian
ServiceKind : Complete Main
Default : Нет
Forced : Нет

Аудио #5
Идентификатор : 6
Формат : AC-3
Формат/Информация : Audio Coding 3
Коммерческое название : Dolby Digital
Идентификатор кодека : A_AC3
Продолжительность : 1 ч. 47 м.
Вид битрейта : Постоянный
Битрейт : 192 Кбит/сек
Каналы : 2 канала
Channel layout : L R
Частота : 48,0 КГц
Частота кадров : 31,250 кадров/сек (1536 SPF)
Битовая глубина : 16 бит
Метод сжатия : С потерями
Размер потока : 148 Мбайт (1%)
Заголовок : Mihalev
Язык : Russian
ServiceKind : Complete Main
Default : Нет
Forced : Нет

Аудио #6
Идентификатор : 7
Формат : AC-3
Формат/Информация : Audio Coding 3
Коммерческое название : Dolby Digital
Идентификатор кодека : A_AC3
Продолжительность : 1 ч. 47 м.
Вид битрейта : Постоянный
Битрейт : 192 Кбит/сек
Каналы : 2 канала
Channel layout : L R
Частота : 48,0 КГц
Частота кадров : 31,250 кадров/сек (1536 SPF)
Битовая глубина : 16 бит
Метод сжатия : С потерями
Размер потока : 148 Мбайт (1%)
Заголовок : Gorchakov
Язык : Russian
ServiceKind : Complete Main
Default : Нет
Forced : Нет

Аудио #7
Идентификатор : 8
Формат : AC-3
Формат/Информация : Audio Coding 3
Коммерческое название : Dolby Digital
Идентификатор кодека : A_AC3
Продолжительность : 1 ч. 47 м.
Вид битрейта : Постоянный
Битрейт : 192 Кбит/сек
Каналы : 2 канала
Channel layout : L R
Частота : 48,0 КГц
Частота кадров : 31,250 кадров/сек (1536 SPF)
Битовая глубина : 16 бит
Метод сжатия : С потерями
Размер потока : 148 Мбайт (1%)
Заголовок : Sonkin
Язык : Russian
ServiceKind : Complete Main
Default : Нет
Forced : Нет

Аудио #8
Идентификатор : 9
Формат : AC-3
Формат/Информация : Audio Coding 3
Коммерческое название : Dolby Digital
Идентификатор кодека : A_AC3
Продолжительность : 1 ч. 47 м.
Вид битрейта : Постоянный
Битрейт : 192 Кбит/сек
Каналы : 2 канала
Channel layout : L R
Частота : 48,0 КГц
Частота кадров : 31,250 кадров/сек (1536 SPF)
Битовая глубина : 16 бит
Метод сжатия : С потерями
Размер потока : 148 Мбайт (1%)
Заголовок : Kuznecov
Язык : Russian
ServiceKind : Complete Main
Default : Нет
Forced : Нет

Аудио #9
Идентификатор : 10
Формат : DTS XLL
Формат/Информация : Digital Theater Systems
Коммерческое название : DTS-HD Master Audio
Идентификатор кодека : A_DTS
Продолжительность : 1 ч. 47 м.
Вид битрейта : Переменный
Битрейт : 1577 Кбит/сек
Каналы : 2 канала
Channel layout : L R
Частота : 48,0 КГц
Частота кадров : 93,750 кадра/сек (512 SPF)
Битовая глубина : 24 бит
Метод сжатия : Без потерь
Размер потока : 1,19 Гбайт (4%)
Язык : English
Default : Нет
Forced : Нет

Аудио #10
Идентификатор : 11
Формат : DTS
Формат/Информация : Digital Theater Systems
Идентификатор кодека : A_DTS
Продолжительность : 1 ч. 47 м.
Вид битрейта : Постоянный
Битрейт : 1509 Кбит/сек
Каналы : 2 канала
Channel layout : L R
Частота : 48,0 КГц
Частота кадров : 93,750 кадра/сек (512 SPF)
Битовая глубина : 24 бит
Метод сжатия : С потерями
Размер потока : 1,14 Гбайт (4%)
Язык : English
Default : Нет
Forced : Нет

Текст #1
Идентификатор : 12
Формат : UTF-8
Идентификатор кодека : S_TEXT/UTF8
Идентификатор кодека/Информация : UTF-8 Plain Text
Продолжительность : 1 ч. 43 м.
Битрейт : 57 бит/сек
ElementCount : 692
Размер потока : 43,5 Кбайт (0%)
Язык : Russian
Default : Нет
Forced : Нет

Текст #2
Идентификатор : 13
Формат : UTF-8
Идентификатор кодека : S_TEXT/UTF8
Идентификатор кодека/Информация : UTF-8 Plain Text
Продолжительность : 1 ч. 45 м.
Битрейт : 47 бит/сек
ElementCount : 1562
Размер потока : 36,6 Кбайт (0%)
Язык : English
Default : Нет
Forced : Нет

Текст #3
Идентификатор : 14
Формат : UTF-8
Идентификатор кодека : S_TEXT/UTF8
Идентификатор кодека/Информация : UTF-8 Plain Text
Продолжительность : 1 ч. 43 м.
Битрейт : 46 бит/сек
ElementCount : 1475
Размер потока : 35,7 Кбайт (0%)
Заголовок : SDH
Язык : English
Default : Нет
Forced : Нет

Меню
00:00:00.000 : en:Chapter 01
00:06:55.832 : en:Chapter 02
00:17:41.143 : en:Chapter 03
00:24:45.859 : en:Chapter 04
00:34:18.347 : en:Chapter 05
00:44:07.853 : en:Chapter 06
00:52:37.821 : en:Chapter 07
01:04:35.413 : en:Chapter 08
01:15:25.312 : en:Chapter 09
01:24:10.754 : en:Chapter 10
01:35:54.749 : en:Chapter 11
01:45:07.551 : en:Chapter 12
01:47:55.719 : en:Chapter 13


_________________
Проголосуй за трекер Открытый торрент трекер - RUS-MEDIA.ORG

Проголосуй Открытый торрент трекер - RUS-MEDIA.ORG


Скачать книги и аудио книги через торрент


Вернуться к началу
 Профиль Отправить личное сообщение  
 
   Похожие торренты   Автор   Торрент   Размер 
В этой теме нет новых непрочитанных сообщений. Одинокая белая женщина / Single White Female [Триллер, экранизация, 1992] BDRemux 1080p, Dub

salma3

0 | 0

32 ГБ

В этой теме нет новых непрочитанных сообщений. Одинокая белая женщина / Single White Female [Триллер, экранизация, 1992] WEB-DLRip-AVC, Dub [Open Matte]

salma3

0 | 0

3.05 ГБ

В этой теме нет новых непрочитанных сообщений. Одинокая женщина / A Lonely Woman [Триллер, драма, криминал, 2018] WEBRip, Dvo

salma3

0 | 0

1.48 ГБ

В этой теме нет новых непрочитанных сообщений. Одинокая женщина / A Lonely Woman [Триллер, драма, криминал, 2018] WEBRip 720p, Dvo

salma3

0 | 0

2.35 ГБ

В этой теме нет новых непрочитанных сообщений. Бэтмен Возвращается / Batman Returns [фантастика, боевик, триллер, 1992] BDRemux 1080p, Dub

salma3

0 | 0

31.8 ГБ

В этой теме нет новых непрочитанных сообщений. Горькая луна / Bitter Moon [Триллер, драма, мелодрама, 1992] BDRemux 1080p, Dub

salma3

0 | 0

34.42 ГБ

В этой теме нет новых непрочитанных сообщений. Бэтмен Возвращается / Batman Returns [фантастика, боевик, триллер, 1992] BDRemux 1080p, Dub

salma3

0 | 0

30.27 ГБ


Начать новую тему Ответить на тему  [ 1 сообщение ] 




Для Мосгорсуда, Роскомнадзора и рекламодателей:: rstracker[собака]yandex.ru
cron