COVID-19 - Последняя информация о коронавирусе на сайте Минздрава




Торрент файл
скачать торрент магнет ссылка Добавлен: 13 ноя 2018, 21:59
Размер: 16.77 ГБ
Сидеров: 0
Личеров: 0
Статус: (salma3)
Автор

СообщениеДобавлено: 13 ноя 2018, 21:59 

Не в сети
Супермодератор
Аватара пользователя
Дата регистрации:
15 фев 2012, 16:44
Возраст: 31
Спасибо: 8273 / 2148
Сообщения: 96527
Год выхода: 1975
Жанр: ужасы
Режиссер: Майкл Файндлей, Горацио Фредрикссон, Саймон Начтерн

В ролях: Маргарита Амучастеги, Ана Карро, Лилиана Фернандез Бланко, Майкл Файндлей, Роберта Файндлей, Альфредо Иглесиас, Энрике Ларрателли, Мирта Масса, Альдо Майо, Клао Вильянуэва

О фильме: История вращается вокруг группы хиппи, которую возглавляет молодой парень по прозвищу «Сатана», и у коего в подчинении находятся четыре девушки, с которыми он спит, с которыми он устраивает кровавые игры, истязая друг дружку, с которыми он занимается наркоторговлей и убийствами.



Страна: Аргентина, США, Канада
Продолжительность: 01:20:02
Перевод: Любительский (одноголосый закадровый) den904
Субтитры: английские [Full, SDH]

Файл
Качество: BDRemux 1080р
Видео: MPEG-4 AVC / NTSC 16:9 / 1920x1080 (1,67:1) / 28933 kbps / 23,976 fps / 0.583 bit/pixel / [email protected]
Аудио 1: Russian / AC3 / 2.0 Ch / 48 kHz / 192 kbps / 16 bit / den904
Аудио 2: English / DTS-HD Master Audio / 1.0 Ch / 48 kHz / 865 kbps / 16-bit (DTS Core: 1.0 Ch / 48 kHz / 768 kbps / 16-bit) / Original

Общее
Уникальный идентификатор : 176591755874334396157105118212108364132 (0x84DA55C64C2AA628B31BAD9FE1F8A964)
Полное имя : Snuff.1976.BDRemux.1080p.mkv
Формат : Matroska
Версия формата : Version 4 / Version 2
Размер файла : 16,8 Гбайт
Продолжительность : 1 ч. 20 м.
Общий поток : 30,0 Мбит/сек
Дата кодирования : UTC 2016-03-08 07:35:39
Программа кодирования : mkvmerge v8.9.0 ('Father Daughter') 64bit
Библиотека кодирования : libebml v1.3.3 + libmatroska v1.4.4

Видео
Идентификатор : 1
Формат : AVC
Формат/Информация : Advanced Video Codec
Профиль формата : High@L4.1
Параметр CABAC формата : Да
Параметр ReFrames формата : 4 кадра
Идентификатор кодека : V_MPEG4/ISO/AVC
Продолжительность : 1 ч. 20 м.
Вид битрейта : Постоянный
Битрейт : 29,0 Мбит/сек
Ширина : 1920 пикселей
Высота : 1080 пикселей
Соотношение сторон : 16:9
Режим частоты кадров : Постоянный
Частота кадров : 23,976 (24000/1001) кадра/сек
Стандарт вещания : NTSC
Цветовое пространство : YUV
Субдискретизация насыщенности : 4:2:0
Битовая глубина : 8 бит
Тип развёртки : Прогрессивная
Бит/(Пиксели*Кадры) : 0.583
Размер потока : 16,2 Гбайт (96%)
Язык : English
Default : Да
Forced : Нет
Цветовой диапазон : Limited
Основные цвета : BT.709
Характеристики трансфера : BT.709
Коэффициенты матрицы : BT.709

Аудио #1
Идентификатор : 2
Формат : AC-3
Формат/Информация : Audio Coding 3
Расширение режима : CM (complete main)
Параметр Endianness формата : Big
Идентификатор кодека : A_AC3
Продолжительность : 1 ч. 19 м.
Вид битрейта : Постоянный
Битрейт : 192 Кбит/сек
Каналы : 2 канала
Расположение каналов : Front: L R
Частота : 48,0 КГц
Частота кадров : 31,250 кадров/сек (1536 spf)
Метод сжатия : С потерями
Размер потока : 110 Мбайт (1%)
Заголовок : VO / den904
Язык : Russian
Default : Да
Forced : Нет

Аудио #2
Идентификатор : 3
Формат : DTS
Формат/Информация : Digital Theater Systems
Профиль формата : MA / Core
Режим : 16
Параметр Endianness формата : Big
Идентификатор кодека : A_DTS
Продолжительность : 1 ч. 20 м.
Вид битрейта : Переменный / Постоянный
Битрейт : 865 Кбит/сек / 768 Кбит/сек
Каналы : 1 канал
Расположение каналов : Front: C
Частота : 48,0 КГц
Частота кадров : 93,750 кадра/сек (512 spf)
Битовая глубина : 16 бит
Метод сжатия : Без потерь / Lossy
Размер потока : 495 Мбайт (3%)
Заголовок : Original
Язык : English
Default : Нет
Forced : Нет

Текст #1
Идентификатор : 4
Формат : UTF-8
Идентификатор кодека : S_TEXT/UTF8
Идентификатор кодека/Информация : UTF-8 Plain Text
Продолжительность : 1 ч. 17 м.
Битрейт : 40 бит/сек
Count of elements : 653
Размер потока : 22,9 Кбайт (0%)
Заголовок : Original
Язык : English
Default : Нет
Forced : Нет

Текст #2
Идентификатор : 5
Формат : UTF-8
Идентификатор кодека : S_TEXT/UTF8
Идентификатор кодека/Информация : UTF-8 Plain Text
Продолжительность : 1 ч. 19 м.
Битрейт : 42 бит/сек
Count of elements : 741
Размер потока : 24,9 Кбайт (0%)
Заголовок : Original / SDH
Язык : English
Default : Нет
Forced : Нет

Меню
00:00:00.000 : en:00:00:00.000
00:05:04.887 : en:00:05:04.887
00:08:33.721 : en:00:08:33.721
00:14:42.965 : en:00:14:42.965
00:19:56.695 : en:00:19:56.695
00:24:07.529 : en:00:24:07.529
00:28:59.320 : en:00:28:59.320
00:34:12.759 : en:00:34:12.759
00:41:05.045 : en:00:41:05.045
00:47:16.834 : en:00:47:16.834
00:52:42.409 : en:00:52:42.409
00:57:34.868 : en:00:57:34.868
01:03:30.556 : en:01:03:30.556
01:08:33.025 : en:01:08:33.025
01:14:26.670 : en:01:14:26.670


_________________
Проголосуй за трекер Открытый торрент трекер - RUS-MEDIA.ORG

Проголосуй Открытый торрент трекер - RUS-MEDIA.ORG


Скачать книги и аудио книги через торрент


Вернуться к началу
 Профиль Отправить личное сообщение  
 
   Похожие торренты   Автор   Торрент   Размер 
В этой теме нет новых непрочитанных сообщений. Судорги / Shivers [ужасы, фантастика, 1975] BDRemux 1080р, Dvo

salma3

3 | 2

22.09 ГБ

В этой теме нет новых непрочитанных сообщений. К.Г.П.О. / C.H.U.D. [ужасы, фантастика, 1984] BDRemux 1080р, Avo

salma3

0 | 0

20.86 ГБ

В этой теме нет новых непрочитанных сообщений. Шрамм / Schramm [ужасы, 1993] BDRemux 1080р, Avo

salma3

0 | 0

16.66 ГБ

В этой теме нет новых непрочитанных сообщений. Детеныш / The Suckling [ужасы, 1990] BDRemux 1080р, Avo

salma3

0 | 0

23.14 ГБ

В этой теме нет новых непрочитанных сообщений. Незваный / Uninvited [ужасы, фантастика, 1988] BDRemux 1080р, Avo

salma3

0 | 0

21.27 ГБ

В этой теме нет новых непрочитанных сообщений. Мозг / The Brain [ужасы, фантастика, 1988] BDRemux 1080р, Avo

salma3

0 | 0

23.2 ГБ

В этой теме нет новых непрочитанных сообщений. Бойня / Slaughterhouse [ужасы, комедия, 1987] BDRemux 1080р, Avo

salma3

1 | 11

23.43 ГБ


Начать новую тему Ответить на тему  [ 1 сообщение ] 




Для Мосгорсуда, Роскомнадзора и рекламодателей:: rstracker[собака]yandex.ru
cron