COVID-19 - Последняя информация о коронавирусе на сайте Минздрава




Торрент файл
скачать торрент магнет ссылка Добавлен: 05 ноя 2018, 12:52
Размер: 2.02 ГБ
Сидеров: 295
Личеров: 58
Статус: (salma3)
Автор

СообщениеДобавлено: 05 ноя 2018, 12:52 

Не в сети
Супермодератор
Аватара пользователя
Дата регистрации:
15 фев 2012, 16:44
Возраст: 31
Спасибо: 8273 / 2148
Сообщения: 96527
Год выхода: 2018
Жанр: Фантастика, драма
Режиссер: Карл Страти

В ролях: Стивен Огг, Элис Лоу

О фильме:
Очнувшись, Трой Холлоуэй осознает, что находится в спасательном шаттле, направляющемся в сторону солнца. Командир Робертс вместе с командой уже мчится ему на помощь, но ситуация всё равно остается ужасной. Уже не говоря о том, что после недавней потери сына Холлоуэй не особо жаждет спасения. Однако командир не позволяет ему спокойно ждать смерти и всячески помогает ему с помощью слабой радиосвязи, пытаясь вытащить его из этого ада.



Страна: Великобритания, Goldfinch Studios,Premiere Picture,Strathie Film
Продолжительность: 01:32:36
Перевод: Любительский (двухголосый закадровый) | HiWay Grope

Файл
Кодек: MPEG-4 AVC/x.264
Качество: WEBRip 720p
Видео: 1280x532, 23.976 fps, ~2923 kbps, 0.179 bit/pixel
Аудио rus: AC3, 48 kHz, 2 ch, 192 Kbps

Реклама: присутствует

Семпл

General
Unique ID : 253362933698463605373378329591358348595 (0xBE9BED13A10F433EA01A46AA48C2DD33)
Complete name : D:Solis.2018.720p.WEBRip.HiWayGropeSolis.2018.720p.WEBRip.HiWayGrope.mkv
Format : Matroska
Format version : Version 4 / Version 2
File size : 2.02 GiB
Duration : 1 h 32 min
Overall bit rate mode : Variable
Overall bit rate : 3 116 kb/s
Encoded date : UTC 2018-11-04 11:45:43
Writing application : mkvmerge v17.0.0 ('Be Ur Friend') 64-bit
Writing library : libebml v1.3.5 + libmatroska v1.4.8

Video
ID : 1
Format : AVC
Format/Info : Advanced Video Codec
Format profile : High@L5
Format settings : CABAC / 4 Ref Frames
Format settings, CABAC : Yes
Format settings, RefFrames : 4 frames
Codec ID : V_MPEG4/ISO/AVC
Duration : 1 h 32 min
Bit rate mode : Variable
Bit rate : 2 923 kb/s
Maximum bit rate : 12.0 Mb/s
Width : 1 280 pixels
Height : 532 pixels
Display aspect ratio : 2.40:1
Frame rate mode : Constant
Frame rate : 23.976 (24000/1001) FPS
Standard : NTSC
Color space : YUV
Chroma subsampling : 4:2:0
Bit depth : 8 bits
Scan type : Progressive
Bits/(Pixel*Frame) : 0.179
Stream size : 1.89 GiB (94%)
Language : English
Default : Yes
Forced : No
Color range : Limited
Color primaries : BT.601 NTSC
Transfer characteristics : BT.601
Matrix coefficients : BT.601

Audio
ID : 2
Format : AC-3
Format/Info : Audio Coding 3
Codec ID : A_AC3
Duration : 1 h 32 min
Bit rate mode : Constant
Bit rate : 192 kb/s
Channel(s) : 2 channels
Channel positions : Front: L R
Sampling rate : 48.0 kHz
Frame rate : 31.250 FPS (1536 SPF)
Bit depth : 16 bits
Compression mode : Lossy
Stream size : 127 MiB (6%)
Service kind : Complete Main
Default : Yes
Forced : No



Релиз от: HiWay Grope


_________________
Проголосуй за трекер Открытый торрент трекер - RUS-MEDIA.ORG

Проголосуй Открытый торрент трекер - RUS-MEDIA.ORG


Скачать книги и аудио книги через торрент


Вернуться к началу
 Профиль Отправить личное сообщение  
 
   Похожие торренты   Автор   Торрент   Размер 
В этой теме нет новых непрочитанных сообщений. Солнце / Solis [Фантастика, драма, 2018] WEBRip, Dvo

salma3

0 | 0

1.21 ГБ

В этой теме нет новых непрочитанных сообщений. Солнце / Solis [боевик, фантастика, 2018] BDRemux 1080р, Dvo

salma3

0 | 0

24.27 ГБ

В этой теме нет новых непрочитанных сообщений. Дубликат / Jonathan [Фантастика, драма, 2018] WEBRip 720p, Dvo

salma3

0 | 0

2.15 ГБ

В этой теме нет новых непрочитанных сообщений. Первые / The First [S01] [Фантастика, драма, 2018] WEBRip 720p, Dvo [SunshineStudio]

salma3

0 | 0

5.03 ГБ

В этой теме нет новых непрочитанных сообщений. Беглецы / Runaways [S02] [Фантастика, боевик, драма, 2018] WEBRip 720p, Dvo [SunshineStudio]

salma3

0 | 0

10.67 ГБ

В этой теме нет новых непрочитанных сообщений. Чужестранка / Outlander [04х02 из 13] [Фантастика, драма, мелодрама, 2018] WEBRip 720p, Dvo [SunshineStudio]

salma3

0 | 0

1.98 ГБ

В этой теме нет новых непрочитанных сообщений. Маньяк / Maniac [01х01-02 из 10] [Фантастика, драма, комедия, 2018] WEBRip 720p, Dvo [SunshineStudio]

salma3

0 | 0

1.23 ГБ


Начать новую тему Ответить на тему  [ 1 сообщение ] 




Для Мосгорсуда, Роскомнадзора и рекламодателей:: rstracker[собака]yandex.ru
cron