COVID-19 - Последняя информация о коронавирусе на сайте Минздрава




Торрент файл
скачать торрент магнет ссылка Добавлен: 27 окт 2018, 20:40
Размер: 76.4 ГБ
Сидеров: 0
Личеров: 0
Статус: (salma3)
Автор

СообщениеДобавлено: 27 окт 2018, 20:40 

Не в сети
Супермодератор
Аватара пользователя
Дата регистрации:
15 фев 2012, 16:44
Возраст: 31
Спасибо: 8281 / 2148
Сообщения: 96721
Год выхода: 2003
Жанр: Фантастика, боевик, триллер
Режиссер: Лилли Вачовски, Лана Вачовски

В ролях: Лоуренс Фишборн, Киану Ривз, Хьюго Уивинг, Моника Белуччи, Джада Пинкетт Смит, Харольд Перрино-мл., Ламбер Уилсон, Кэрри-Энн Мосс, Хэрри Дж. Ленникс, Клэйтон Уотсон, Дэниэл Бернхардт, Мэтт МакКолм, Кристин Ану

О фильме:
Морфиус сделал своё дело, освободив тело и разум Нео от пагубного влияния Матрицы. Теперь дело за малым: нужно всего лишь спасти жителей единственного человеческого города Зиона. Но перед этим Избранный должен похитить Мастера ключей, чтобы тот помог добраться до Архитектора, создателя Матрицы. На пути к этому Нео, Морфиусу и Тринити будут усиленно вставлять палки в колёса Меровинген, в чьих подвалах за семью замками трудится Мастер ключей, непонятно откуда взявшийся агент Смит, который научился самокопированию, братья-альбиносы, практически неуязвимые охранники Меровингена и, конечно же, машины, созданные с одной целью - убивать людей.



Страна: США, Австралия
Продолжительность: 02:18.17
Перевод: Дублированный, профессиональный двухголосый, авторский

Файл
Кодек: H.265
Качество: BDRemux 2160p
Видео: HEVC HDR, 67.2 Mбит/с, 3840x2160, 23.976 кадр/с
Звук:
Русский (AC3, 6 ch, 640 Кбит/с) / Дублированный (Blu-Ray EUR)
Русский (DTS-HD MA, 6 ch, 2424 Кбит/с) / Профессиональный двухголосый (П. Гланц и И. Королёва)
Русский (DTS-HD MA, 6 ch, 2421 Кбит/с) / Профессиональный двухголосый
Русский (DTS-HD MA, 6 ch, 2423 Кбит/с) / Авторский (А. Гаврилов)
Английский (TrueHD+Atmos, 8 ch, 3425 Кбит/c)
Английский (AC3, 6 ch, 640 Кбит/c)
Субтитры: Русские, английские

Семпл

General
Unique ID : 232853310539389653093894638259398194817 (0xAF2DEA955F7CB550F21D038C105B3681)
Complete name : C:UsersPublicVideosSample VideosFilmyThe.Matrix.Reloaded.2003.BDRemux.2160p.HDR.MediaClub.mkv
Format : Matroska
Format version : Version 4
File size : 76.4 GiB
Duration : 2 h 18 min
Overall bit rate mode : Variable
Overall bit rate : 79.1 Mb/s
Encoded date : UTC 2018-10-27 03:23:40
Writing application : mkvmerge v28.2.0 ('The Awakening') 64-bit
Writing library : libebml v1.3.6 + libmatroska v1.4.9
Cover : Yes
Attachments : cover.jpg

Video
ID : 1
Format : HEVC
Format/Info : High Efficiency Video Coding
Commercial name : HDR10
Format profile : Main 10@L5.1@High
Codec ID : V_MPEGH/ISO/HEVC
Duration : 2 h 18 min
Bit rate : 67.2 Mb/s
Width : 3 840 pixels
Height : 2 160 pixels
Display aspect ratio : 16:9
Frame rate mode : Constant
Frame rate : 23.976 (24000/1001) FPS
Color space : YUV
Chroma subsampling : 4:2:0 (Type 2)
Bit depth : 10 bits
Bits/(Pixel*Frame) : 0.338
Stream size : 64.9 GiB (85%)
Title : BDRemux.2160p.HDR by Silverok
Default : Yes
Forced : No
Color range : Limited
Color primaries : BT.2020
Transfer characteristics : PQ
Matrix coefficients : BT.2020 non-constant
Mastering display color primaries : BT.2020
Mastering display luminance : min: 0.0001 cd/m2, max: 1000 cd/m2
Maximum Content Light Level : 996 cd/m2
Maximum Frame-Average Light Level : 246 cd/m2

Audio #1
ID : 2
Format : AC-3
Format/Info : Audio Coding 3
Commercial name : Dolby Digital
Codec ID : A_AC3
Duration : 2 h 18 min
Bit rate mode : Constant
Bit rate : 640 kb/s
Channel(s) : 6 channels
Channel layout : L R C LFE Ls Rs
Sampling rate : 48.0 kHz
Frame rate : 31.250 FPS (1536 SPF)
Bit depth : 16 bits
Compression mode : Lossy
Stream size : 633 MiB (1%)
Title : Дублированный (Blu-Ray EUR)
Language : Russian
Service kind : Complete Main
Default : Yes
Forced : No

Audio #2
ID : 3
Format : DTS XLL
Format/Info : Digital Theater Systems
Commercial name : DTS-HD Master Audio
Codec ID : A_DTS
Duration : 2 h 18 min
Bit rate mode : Variable
Bit rate : 2 424 kb/s
Channel(s) : 6 channels
Channel layout : C L R Ls Rs LFE
Sampling rate : 48.0 kHz
Frame rate : 93.750 FPS (512 SPF)
Bit depth : 16 bits
Compression mode : Lossless
Delay relative to video : 2 s 4 ms
Stream size : 2.34 GiB (3%)
Title : Профессиональный двухголосый (П. Гланц и И. Королёва)
Language : Russian
Default : No
Forced : No

Audio #3
ID : 4
Format : DTS XLL
Format/Info : Digital Theater Systems
Commercial name : DTS-HD Master Audio
Codec ID : A_DTS
Duration : 2 h 18 min
Bit rate mode : Variable
Bit rate : 2 421 kb/s
Channel(s) : 6 channels
Channel layout : C L R Ls Rs LFE
Sampling rate : 48.0 kHz
Frame rate : 93.750 FPS (512 SPF)
Bit depth : 16 bits
Compression mode : Lossless
Delay relative to video : 2 s 4 ms
Stream size : 2.34 GiB (3%)
Title : Профессиональный двухголосый
Language : Russian
Default : No
Forced : No

Audio #4
ID : 5
Format : DTS XLL
Format/Info : Digital Theater Systems
Commercial name : DTS-HD Master Audio
Codec ID : A_DTS
Duration : 2 h 18 min
Bit rate mode : Variable
Bit rate : 2 423 kb/s
Channel(s) : 6 channels
Channel layout : C L R Ls Rs LFE
Sampling rate : 48.0 kHz
Frame rate : 93.750 FPS (512 SPF)
Bit depth : 16 bits
Compression mode : Lossless
Delay relative to video : 2 s 4 ms
Stream size : 2.34 GiB (3%)
Title : Авторский (А. Гаврилов)
Language : Russian
Default : No
Forced : No

Audio #5
ID : 6
Format : MLP FBA 16-ch
Format/Info : Meridian Lossless Packing FBA with 16-channel presentation
Commercial name : Dolby TrueHD with Dolby Atmos
Codec ID : A_TRUEHD
Duration : 2 h 18 min
Bit rate mode : Variable
Bit rate : 3 425 kb/s
Maximum bit rate : 5 928 kb/s
Channel(s) : 8 channels
Channel layout : L R C LFE Ls Rs Lb Rb
Sampling rate : 48.0 kHz
Frame rate : 1 200.000 FPS (40 SPF)
Compression mode : Lossless
Stream size : 3.31 GiB (4%)
Language : English
Default : No
Forced : No
Number of dynamic objects : 11
Bed channel count : 1 channel
Bed channel configuration : LFE

Audio #6
ID : 7
Format : AC-3
Format/Info : Audio Coding 3
Commercial name : Dolby Digital
Codec ID : A_AC3
Duration : 2 h 18 min
Bit rate mode : Constant
Bit rate : 448 kb/s
Channel(s) : 6 channels
Channel layout : L R C LFE Ls Rs
Sampling rate : 48.0 kHz
Frame rate : 31.250 FPS (1536 SPF)
Bit depth : 16 bits
Compression mode : Lossy
Stream size : 443 MiB (1%)
Language : English
Service kind : Complete Main
Default : No
Forced : No

Text #1
ID : 8
Format : UTF-8
Codec ID : S_TEXT/UTF8
Codec ID/Info : UTF-8 Plain Text
Duration : 2 h 17 min
Bit rate : 67 b/s
Count of elements : 1186
Stream size : 67.8 KiB (0%)
Title : Full
Language : Russian
Default : Yes
Forced : No

Text #2
ID : 9
Format : UTF-8
Codec ID : S_TEXT/UTF8
Codec ID/Info : UTF-8 Plain Text
Duration : 2 h 16 min
Bit rate : 44 b/s
Count of elements : 1193
Stream size : 44.9 KiB (0%)
Title : Full
Language : English
Default : No
Forced : No

Menu
00:00:00.000 : en:Trinity's In
00:03:50.229 : en:Trust Me
00:08:55.367 : en:Upgrades
00:12:16.903 : en:Zion
00:16:24.317 : en:Matter of Time
00:19:43.182 : en:Homecomings
00:23:29.407 : en:We Are Still Here
00:27:26.811 : en:Celebrating Humanity
00:32:01.252 : en:Smith Will Suffice
00:33:43.188 : en:What Is Control?
00:37:57.442 : en:Summoned
00:40:55.619 : en:Seraph
00:43:44.956 : en:The Oracle
00:50:42.706 : en:Swarm of Smiths
00:55:08.472 : en:Sticking It to Them
01:00:03.099 : en:The Volunteer
01:02:49.766 : en:Taste of Merovingian
01:08:52.295 : en:Persephone's Kiss
01:13:06.881 : en:Unlocking the Keymaker
01:16:21.408 : en:Blade Leapers
01:20:31.827 : en:Twin Trouble
01:22:47.128 : en:Freeway Entrance
01:26:12.501 : en:Cross-Vehicular Traffic
01:29:52.886 : en:Biker Girl
01:32:50.899 : en:Trucks Amuck
01:37:10.823 : en:The Reason We're Here
01:40:51.378 : en:Sacrifice and Sabotage
01:44:57.791 : en:So Many of Me
01:48:12.152 : en:The Architect
01:52:25.572 : en:The One's Function
01:55:42.935 : en:Neo's Choice
01:57:37.550 : en:Not Letting Go
02:01:51.470 : en:Bomb's Target
02:04:18.451 : en:Feeling the Enemy
02:07:04.115 : en:End Credits
02:16:29.680 : en:The Matrix Revolutions Trailer


Релиз от: | Silverok


_________________
Проголосуй за трекер Открытый торрент трекер - RUS-MEDIA.ORG

Проголосуй Открытый торрент трекер - RUS-MEDIA.ORG


Скачать книги и аудио книги через торрент


Вернуться к началу
 Профиль Отправить личное сообщение  
 
   Похожие торренты   Автор   Торрент   Размер 
В этой теме нет новых непрочитанных сообщений. Матрица: Перезагрузка / The Matrix: Reloaded [Фантастика, боевик, триллер, 2003] UHD Blu-Ray 2160p, Dub [4K]

salma3

0 | 0

84.55 ГБ

В этой теме нет новых непрочитанных сообщений. Матрица: Перезагрузка / The Matrix Reloaded [Фантастика, Боевик, 2003] BDRip-HEVC 720p, Dub [Лицензия]

salma3

12 | 0

3.53 ГБ

В этой теме нет новых непрочитанных сообщений. Матрица: Перезагрузка / The Matrix Reloaded [Фантастика, боевик, приключения, 2003] WEB-DLRip-720, Dub [Open Matte]

salma3

0 | 0

3.4 ГБ

В этой теме нет новых непрочитанных сообщений. Матрица / The Matrix [Фантастика, боевик, приключения, 1999] UHD BDRemux 2160p, Dub [4K] [Лицензия]

salma3

18 | 4

68.37 ГБ

В этой теме нет новых непрочитанных сообщений. Матрица: Революция / The Matrix Revolutions [Фантастика, боевик, триллер, 2003] BDRip-HEVC 720p, Dub [Лицензия]

salma3

0 | 0

3.58 ГБ

В этой теме нет новых непрочитанных сообщений. Матрица: Революция / The Matrix Revolutions [Фантастика, боевик, триллер, 2003] HDTV 1080p, Dub [Open Matte]

salma3

0 | 0

6.37 ГБ

В этой теме нет новых непрочитанных сообщений. Матрица / The Matrix [Фантастика, боевик, приключения, 1999] BDRip-HEVC 2160p, Dub

salma3

0 | 0

51.66 ГБ


Начать новую тему Ответить на тему  [ 1 сообщение ] 




Для Мосгорсуда, Роскомнадзора и рекламодателей:: rstracker[собака]yandex.ru
cron