COVID-19 - Последняя информация о коронавирусе на сайте Минздрава




Торрент файл
скачать торрент магнет ссылка Добавлен: 19 окт 2018, 20:42
Размер: 22.12 ГБ
Сидеров: 0
Личеров: 0
Статус: (salma3)
Автор

СообщениеДобавлено: 19 окт 2018, 20:42 

Не в сети
Супермодератор
Аватара пользователя
Дата регистрации:
15 фев 2012, 16:44
Возраст: 30
Спасибо: 8262 / 2148
Сообщения: 96145
Год выхода: 2011
Жанр: Комедия
Режиссер: Тодд Филлипс

В ролях: Брэдли Купер, Эд Хелмс, Зак Галифианакис, Майк Тайсон, Джастин Барта, Кен Жонг, Пол Джаматти, Джефри Тэмбор, Мэйсон С. Ли, Джеми Чунг

О фильме:
В продолжении культовой комедии «Мальчишник в Вегасе» четверо друзей Фил, Стю, Алан и Даг отправляются в экзотический Тайланд на свадьбу Стю. После безумного мальчишника в Лас-Вегасе, они решают не испытывать судьбу во второй раз, а потому в Бангкоке планируют очень спокойное и безопасное празднество. Но как обычно, все идет совсем не по плану… Что происходит в Вегасе, остается в Вегасе. Но то, что происходит в Бангкоке — это просто настоящее безумие!



Страна: США
Продолжительность: 01:41:50
Перевод: Дублированный, авторский

Файл
Кодек: H.265
Качество: WEBRip-HEVC 2160p
Видео: HEVC HDR, 24.3 Mбит/с, 3840x1600, 23.976 кадр/с
Звук:
Русский (AC3, 6 ch, 640 Кбит/с) / Дублированный (BD CEE)
Русский (DTS, 6 ch, 1509 Кбит/с) / Авторский (Алексей «Doctor_Joker» Матвеев)
Украинский (AC3, 6 ch, 640 Кбит/с) / Дублированный (BD CEE)
Английский (DTS-HD MA, 6 ch, 4002 Кбит/с)
Субтитры: Русские (Форсированные, полные "Blu-ray", "Goblin", "voronine"), английские (SDH)

Семпл

General
Unique ID : 239920039001650703445232646147358046913 (0xB47EEB325C2BB81E28DA0D3FFFD7BAC1)
Complete name : C:UsersPublicVideosSample VideosFilmyThe.Hangover.Part.II.2011.2160p.HDR.WEBRip.MediaClub.mkv
Format : Matroska
Format version : Version 4
File size : 22.1 GiB
Duration : 1 h 41 min
Overall bit rate mode : Variable
Overall bit rate : 31.1 Mb/s
Encoded date : UTC 2018-10-19 14:13:38
Writing application : mkvmerge v25.0.0 ('Prog Noir') 64-bit
Writing library : libebml v1.3.6 + libmatroska v1.4.9
Cover : Yes
Attachments : cover.jpg

Video
ID : 1
Format : HEVC
Format/Info : High Efficiency Video Coding
Commercial name : HDR10
Format profile : Main 10@L5.1@High
Codec ID : V_MPEGH/ISO/HEVC
Duration : 1 h 41 min
Bit rate : 24.3 Mb/s
Width : 3 840 pixels
Height : 1 600 pixels
Display aspect ratio : 2.40:1
Frame rate mode : Constant
Frame rate : 23.976 (24000/1001) FPS
Color space : YUV
Chroma subsampling : 4:2:0 (Type 2)
Bit depth : 10 bits
Bits/(Pixel*Frame) : 0.165
Stream size : 17.3 GiB (78%)
Title : WEBRip.2160p.HDR by Silverok
Writing library : x265 2.9+2-7e978ed93d60:[Windows][MSVC 1915][64 bit] 10bit
Encoding settings : cpuid=1111039 / frame-threads=4 / numa-pools=28 / wpp / no-pmode / no-pme / no-psnr / no-ssim / log-level=2 / input-csp=1 / input-res=3840x1600 / interlace=0 / total-frames=132963 / level-idc=51 / high-tier=1 / uhd-bd=0 / ref=4 / no-allow-non-conformance / repeat-headers / annexb / aud / hrd / info / hash=0 / no-temporal-layers / no-open-gop / min-keyint=24 / keyint=240 / gop-lookahead=0 / bframes=4 / b-adapt=2 / b-pyramid / bframe-bias=0 / rc-lookahead=25 / lookahead-slices=4 / scenecut=40 / radl=0 / no-intra-refresh / ctu=64 / min-cu-size=8 / rect / no-amp / max-tu-size=32 / tu-inter-depth=1 / tu-intra-depth=1 / limit-tu=0 / rdoq-level=2 / dynamic-rd=0.00 / no-ssim-rd / signhide / no-tskip / nr-intra=0 / nr-inter=0 / no-constrained-intra / no-strong-intra-smoothing / max-merge=3 / limit-refs=3 / limit-modes / me=3 / subme=3 / merange=57 / temporal-mvp / weightp / no-weightb / no-analyze-src-pics / deblock=3:3 / no-sao / no-sao-non-deblock / rd=4 / no-early-skip / rskip / no-fast-intra / no-tskip-fast / no-cu-lossless / no-b-intra / no-splitrd-skip / rdpenalty=0 / psy-rd=2.00 / psy-rdoq=1.00 / no-rd-refine / no-lossless / cbqpoffs=0 / crqpoffs=0 / rc=crf / crf=13.0 / qcomp=0.70 / qpstep=4 / stats-write=0 / stats-read=0 / vbv-maxrate=160000 / vbv-bufsize=160000 / vbv-init=0.9 / crf-max=0.0 / crf-min=0.0 / ipratio=1.40 / pbratio=1.30 / aq-mode=1 / aq-strength=1.00 / cutree / zone-count=0 / no-strict-cbr / qg-size=32 / no-rc-grain / qpmax=69 / qpmin=0 / no-const-vbv / sar=1 / overscan=0 / videoformat=5 / range=0 / colorprim=9 / transfer=16 / colormatrix=9 / chromaloc=1 / chromaloc-top=2 / chromaloc-bottom=2 / display-window=0 / master-display=G(8500,39850)B(6550,2300)R(35400,14600)WP(15635,16450)L(40000000,50) / max-cll=1000,400 / min-luma=0 / max-luma=1023 / log2-max-poc-lsb=8 / vui-timing-info / vui-hrd-info / slices=1 / no-opt-qp-pps / no-opt-ref-list-length-pps / no-multi-pass-opt-rps / scenecut-bias=0.05 / no-opt-cu-delta-qp / no-aq-motion / hdr / hdr-opt / no-dhdr10-opt / no-idr-recovery-sei / analysis-reuse-level=5 / scale-factor=0 / refine-intra=0 / refine-inter=0 / refine-mv=0 / no-limit-sao / ctu-info=0 / no-lowpass-dct / refine-mv-type=0 / copy-pic=1 / max-ausize-factor=1.0 / no-dynamic-refine / no-single-sei
Default : Yes
Forced : No
Color range : Limited
Color primaries : BT.2020
Transfer characteristics : PQ
Matrix coefficients : BT.2020 non-constant
Mastering display color primaries : BT.2020
Mastering display luminance : min: 0.0050 cd/m2, max: 4000 cd/m2
Maximum Content Light Level : 1000 cd/m2
Maximum Frame-Average Light Level : 400 cd/m2

Audio #1
ID : 2
Format : AC-3
Format/Info : Audio Coding 3
Commercial name : Dolby Digital
Codec ID : A_AC3
Duration : 1 h 41 min
Bit rate mode : Constant
Bit rate : 640 kb/s
Channel(s) : 6 channels
Channel layout : L R C LFE Ls Rs
Sampling rate : 48.0 kHz
Frame rate : 31.250 FPS (1536 SPF)
Bit depth : 16 bits
Compression mode : Lossy
Delay relative to video : 361 ms
Stream size : 466 MiB (2%)
Title : Дублированный (Blu-ray CEE)
Language : Russian
Service kind : Complete Main
Default : Yes
Forced : No

Audio #2
ID : 3
Format : DTS
Format/Info : Digital Theater Systems
Codec ID : A_DTS
Duration : 1 h 41 min
Bit rate mode : Constant
Bit rate : 1 509 kb/s
Channel(s) : 6 channels
Channel layout : C L R Ls Rs LFE
Sampling rate : 48.0 kHz
Frame rate : 93.750 FPS (512 SPF)
Bit depth : 24 bits
Compression mode : Lossy
Delay relative to video : 361 ms
Stream size : 1.07 GiB (5%)
Title : Любительский одноголосый (Алексей «Doctor_Joker» Матвеев)
Language : Russian
Default : No
Forced : No

Audio #3
ID : 4
Format : AC-3
Format/Info : Audio Coding 3
Commercial name : Dolby Digital
Codec ID : A_AC3
Duration : 1 h 41 min
Bit rate mode : Constant
Bit rate : 640 kb/s
Channel(s) : 6 channels
Channel layout : L R C LFE Ls Rs
Sampling rate : 48.0 kHz
Frame rate : 31.250 FPS (1536 SPF)
Bit depth : 16 bits
Compression mode : Lossy
Delay relative to video : 361 ms
Stream size : 466 MiB (2%)
Title : Дублированный (Blu-ray CEE)
Language : Ukrainian
Service kind : Complete Main
Default : No
Forced : No

Audio #4
ID : 5
Format : DTS XLL
Format/Info : Digital Theater Systems
Commercial name : DTS-HD Master Audio
Codec ID : A_DTS
Duration : 1 h 41 min
Bit rate mode : Variable
Bit rate : 4 002 kb/s
Channel(s) : 6 channels
Channel layout : C L R Ls Rs LFE
Sampling rate : 48.0 kHz
Frame rate : 93.750 FPS (512 SPF)
Bit depth : 24 bits
Compression mode : Lossless
Delay relative to video : 361 ms
Stream size : 2.85 GiB (13%)
Language : English
Default : No
Forced : No

Text #1
ID : 6
Format : UTF-8
Codec ID : S_TEXT/UTF8
Codec ID/Info : UTF-8 Plain Text
Duration : 1 h 33 min
Bit rate : 0 b/s
Count of elements : 11
Stream size : 266 Bytes (0%)
Title : Forced
Language : Russian
Default : Yes
Forced : Yes

Text #2
ID : 7
Format : UTF-8
Codec ID : S_TEXT/UTF8
Codec ID/Info : UTF-8 Plain Text
Duration : 1 h 36 min
Bit rate : 108 b/s
Count of elements : 1372
Stream size : 76.2 KiB (0%)
Title : Full (Blu-ray CEE)
Language : Russian
Default : No
Forced : No

Text #3
ID : 8
Format : UTF-8
Codec ID : S_TEXT/UTF8
Codec ID/Info : UTF-8 Plain Text
Duration : 1 h 37 min
Bit rate : 111 b/s
Count of elements : 1513
Stream size : 79.3 KiB (0%)
Title : Full (Дмитрий "Goblin" Пучков)
Language : Russian
Default : No
Forced : No

Text #4
ID : 9
Format : UTF-8
Codec ID : S_TEXT/UTF8
Codec ID/Info : UTF-8 Plain Text
Duration : 1 h 38 min
Bit rate : 106 b/s
Count of elements : 1373
Stream size : 76.3 KiB (0%)
Title : Full (voronine)
Language : Russian
Default : No
Forced : No

Text #5
ID : 10
Format : UTF-8
Codec ID : S_TEXT/UTF8
Codec ID/Info : UTF-8 Plain Text
Duration : 1 h 40 min
Bit rate : 75 b/s
Count of elements : 1675
Stream size : 55.5 KiB (0%)
Title : SDH
Language : English
Default : No
Forced : No


Релиз от: | Silverok


_________________
Проголосуй за трекер Открытый торрент трекер - RUS-MEDIA.ORG

Проголосуй Открытый торрент трекер - RUS-MEDIA.ORG


Скачать книги и аудио книги через торрент


Вернуться к началу
 Профиль Отправить личное сообщение  
 
   Похожие торренты   Автор   Торрент   Размер 
В этой теме нет новых непрочитанных сообщений. Мальчишник 2: Из Вегаса в Бангкок / The Hangover Part II [Комедия, 2011] BDRip-HEVC 1080p, Dub

salma3

0 | 0

9.93 ГБ

В этой теме нет новых непрочитанных сообщений. Мальчишник 2: Из Вегаса в Бангкок / The Hangover Part II [комедия, 2011] BDRemux 1080p, Dub

salma3

2 | 2

15.1 ГБ

В этой теме нет новых непрочитанных сообщений. Мальчишник в Вегасе / The Hangover [Комедия, криминал, 2009] BDRip-HEVC 1080p, Dub [Театральная версия]

salma3

0 | 0

7.83 ГБ

В этой теме нет новых непрочитанных сообщений. Дом / The House [Комедия, 2017] WEBRip-HEVC 2160p, Dub

salma3

0 | 0

17.37 ГБ

В этой теме нет новых непрочитанных сообщений. Мальчишник в Вегасе / The Hangover [комедия, 2009] WEB-DLRip-AVC, Dub [Theatrical Cut] [Open Matte]

salma3

2 | 2

2.18 ГБ

В этой теме нет новых непрочитанных сообщений. Калифорнийский дорожный патруль / CHIPS [Боевик, комедия, криминал, 2017] WEBRip-HEVC 2160p, Dub [4K]

salma3

0 | 0

21.27 ГБ

В этой теме нет новых непрочитанных сообщений. Король / The King [Драма, военный, биография, 2019] WEBRip-HEVC 2160p, Dub [4K]

salma3

0 | 0

21.15 ГБ


Начать новую тему Ответить на тему  [ 1 сообщение ] 




Для Мосгорсуда, Роскомнадзора и рекламодателей:: rstracker[собака]yandex.ru
cron