COVID-19 - Последняя информация о коронавирусе на сайте Минздрава




Торрент файл
скачать торрент магнет ссылка Добавлен: 18 окт 2018, 10:59
Размер: 1.69 ГБ
Сидеров: 0
Личеров: 0
Статус: (salma3)
Автор

СообщениеДобавлено: 18 окт 2018, 10:59 

Не в сети
Супермодератор
Аватара пользователя
Дата регистрации:
15 фев 2012, 16:44
Возраст: 31
Спасибо: 8280 / 2148
Сообщения: 96711
Год выхода: 2018
Жанр: Триллер
Режиссер: Джереми Ангар

В ролях: Белла Торн, Джесси Ашер, Уилл Брилл, Хейли Кеанна Лаутенбах, Сара Линдсей

О фильме:
Когда Джеймс, водитель Убера, и его пассажирка Джессика остановились, чтобы подвезти харизматичного Бруно, они не знали, что этот спокойный вечер обернется для них гонкой на выживание.



Страна: США, Look to the Sky Films
Продолжительность: 01:16:57
Перевод: Любительский (двухголосый закадровый) | HiWay Grope

Файл
Кодек: MPEG-4 AVC/x.264
Качество: WEBRip 720p
Видео: 1280x530, 23.976 fps, ~2942 kbps, 0.181 bit/pixel
Аудио rus: AC3, 48 kHz, 2 ch, 192 Kbps

Реклама: присутствует

Семпл

General
Unique ID : 190230165958655747590759225034992760524 (0x8F1CFF4EB220F96FA77FDA5457ABB6CC)
Complete name : D:Ride.2018.720p.WEBRip.HiWayGropeRide.2018.720p.WEBRip.HiWayGrope.mkv
Format : Matroska
Format version : Version 4 / Version 2
File size : 1.69 GiB
Duration : 1 h 16 min
Overall bit rate mode : Variable
Overall bit rate : 3 136 kb/s
Encoded date : UTC 2018-10-17 20:32:30
Writing application : mkvmerge v17.0.0 ('Be Ur Friend') 64-bit
Writing library : libebml v1.3.5 + libmatroska v1.4.8

Video
ID : 1
Format : AVC
Format/Info : Advanced Video Codec
Format profile : High@L5
Format settings : CABAC / 4 Ref Frames
Format settings, CABAC : Yes
Format settings, RefFrames : 4 frames
Codec ID : V_MPEG4/ISO/AVC
Duration : 1 h 16 min
Bit rate mode : Variable
Bit rate : 2 942 kb/s
Maximum bit rate : 12.0 Mb/s
Width : 1 280 pixels
Height : 530 pixels
Display aspect ratio : 2.40:1
Frame rate mode : Constant
Frame rate : 23.976 (24000/1001) FPS
Standard : NTSC
Color space : YUV
Chroma subsampling : 4:2:0
Bit depth : 8 bits
Scan type : Progressive
Bits/(Pixel*Frame) : 0.181
Stream size : 1.58 GiB (94%)
Language : English
Default : Yes
Forced : No
Color range : Limited
Color primaries : BT.601 NTSC
Transfer characteristics : BT.601
Matrix coefficients : BT.601

Audio
ID : 2
Format : AC-3
Format/Info : Audio Coding 3
Codec ID : A_AC3
Duration : 1 h 16 min
Bit rate mode : Constant
Bit rate : 192 kb/s
Channel(s) : 2 channels
Channel positions : Front: L R
Sampling rate : 48.0 kHz
Frame rate : 31.250 FPS (1536 SPF)
Bit depth : 16 bits
Compression mode : Lossy
Stream size : 106 MiB (6%)
Service kind : Complete Main
Default : Yes
Forced : No



Релиз от: HiWay Grope


_________________
Проголосуй за трекер Открытый торрент трекер - RUS-MEDIA.ORG

Проголосуй Открытый торрент трекер - RUS-MEDIA.ORG


Скачать книги и аудио книги через торрент


Вернуться к началу
 Профиль Отправить личное сообщение  
 
   Похожие торренты   Автор   Торрент   Размер 
В этой теме нет новых непрочитанных сообщений. Смертельная поездка / Ryde or Die [Ужасы, триллер, 2018] WEBRip 720p, Dvo

salma3

0 | 0

966.94 МБ

В этой теме нет новых непрочитанных сообщений. Смертельная поездка / Ryde or Die [Ужасы, триллер, 2018] WEBRip, Dvo

salma3

0 | 0

570.22 МБ

В этой теме нет новых непрочитанных сообщений. В объезд / Та еще поездка / The Detour [S03] [комедия, 2018] WEBRip 720p, Mvo [ColdFilm]

salma3

0 | 0

6.29 ГБ

В этой теме нет новых непрочитанных сообщений. Совместная поездка / Ride Along [боевик, комедия, 2014] HDRip, Dub

salma3

155 | 25

1.45 ГБ

В этой теме нет новых непрочитанных сообщений. Сомниум / Somnium [Триллер, 2018] WEBRip 720p, Dvo

salma3

0 | 1

1.74 ГБ

В этой теме нет новых непрочитанных сообщений. Радушие / Hospitality [Триллер, 2018] WEBRip 720p, Dvo

salma3

0 | 1

1.79 ГБ

В этой теме нет новых непрочитанных сообщений. Тёмное зеркало / Look Away [Триллер, 2018] WEBRip 720p, Dvo

salma3

0 | 0

2.28 ГБ


Начать новую тему Ответить на тему  [ 1 сообщение ] 




Для Мосгорсуда, Роскомнадзора и рекламодателей:: rstracker[собака]yandex.ru
cron