COVID-19 - Последняя информация о коронавирусе на сайте Минздрава




Торрент файл
скачать торрент магнет ссылка Добавлен: 15 окт 2018, 21:07
Размер: 56.53 ГБ
Сидеров: 0
Личеров: 0
Статус: (salma3)
Автор

СообщениеДобавлено: 15 окт 2018, 21:07 

Не в сети
Супермодератор
Аватара пользователя
Дата регистрации:
15 фев 2012, 16:44
Возраст: 31
Спасибо: 8280 / 2148
Сообщения: 96711
Год выхода: 1998
Жанр: Комедия, криминал
Режиссер: Джоэл Коэн

В ролях: Джефф Бриджес, Джон Гудмен, Джулианна Мур, Стив Бушеми, Дэвид Хаддлстон, Филип Сеймур Хоффман, Тара Рейд, Филип Мун, Марк Пеллегрино, Петер Стормаре, Фли, Торстен Фогс, Джимми Дэйл Гилмор, Джек Келер, Джон Туртурро, Джеймс Г. Хусир, Карлос Леон, Терренс Бертон,

О фильме:
Лос-Анджелес, 1991 год, война в Персидском заливе. Главный герой по прозвищу «Чувак» считает себя совершенно счастливым человеком. Его жизнь составляют игра в боулинг и выпивка. Но внезапно его счастье нарушается, гангстеры по ошибке принимают его за миллионера-однофамильца, требуют деньги, о которых он ничего не подозревает, и, ко всему прочему, похищают жену миллионера, будучи уверенными, что «муж» выплатит за нее любую сумму.



Страна: США, Великобритания
Продолжительность: 01:57:21
Перевод: Дублированный, профессиональный многоголосый, авторский

Файл
Кодек: H.265
Качество: BDRemux 2160p
Видео: HEVC HDR, 58.6 Mбит/с, 3840x2160, 23.976 кадр/с
Звук:
Русский (AC3, 6 ch, 384 Кбит/с) / Дублированный
Русский (DTS, 6 ch, 768 Кбит/с) / Профессиональный многоголосый (Blu-ray CEE)
Русский (AC3, 6 ch, 448 Кбит/с) / Профессиональный многоголосый (Киномания)
Русский (DTS, 6 ch, 1758 Кбит/с) / Авторский (Дмитрий «Гоблин» Пучков)
Русский (AC3, 6 ch, 640 Кбит/с) / Авторский (А.Гаврилов)
Русский (AC3, 6 ch, 640 Кбит/с) / Авторский (Ю.Сербин)
Русский (AC3, 6 ch, 640 Кбит/с) / Авторский ((Ю.Живов)
Украинский (AC3, 2 ch, 192 Кбит/с) / Профессиональный многоголосый
Английский (DTS-HD MA, 8 ch, 4938 Кбит/с)
Субтитры: Русские, английские

Семпл

General
Unique ID : 324427459430994529245386310455062364797 (0xF41274B53460970BC6393907B457027D)
Complete name : C:UsersPublicVideosSample VideosFilmyThe.Big.Lebowski.1998.BDRemux.2160p.HDR.MediaClub.mkv
Format : Matroska
Format version : Version 4
File size : 56.5 GiB
Duration : 1 h 57 min
Overall bit rate mode : Variable
Overall bit rate : 69.0 Mb/s
Encoded date : UTC 2018-10-15 12:57:53
Writing application : mkvmerge v25.0.0 ('Prog Noir') 64-bit
Writing library : libebml v1.3.6 + libmatroska v1.4.9
Cover : Yes
Attachments : cover.jpg

Video
ID : 1
Format : HEVC
Format/Info : High Efficiency Video Coding
Commercial name : HDR10
Format profile : Main 10@L5.1@High
Codec ID : V_MPEGH/ISO/HEVC
Duration : 1 h 57 min
Bit rate : 58.6 Mb/s
Width : 3 840 pixels
Height : 2 160 pixels
Display aspect ratio : 16:9
Frame rate mode : Constant
Frame rate : 23.976 (24000/1001) FPS
Color space : YUV
Chroma subsampling : 4:2:0 (Type 2)
Bit depth : 10 bits
Bits/(Pixel*Frame) : 0.295
Stream size : 48.0 GiB (85%)
Title : BDRemux.2160p.HDR by Silverok
Default : Yes
Forced : No
Color range : Limited
Color primaries : BT.2020
Transfer characteristics : PQ
Matrix coefficients : BT.2020 non-constant
Mastering display color primaries : Display P3
Mastering display luminance : min: 0.0050 cd/m2, max: 1000 cd/m2
Maximum Content Light Level : 1000 cd/m2
Maximum Frame-Average Light Level : 131 cd/m2

Audio #1
ID : 2
Format : AC-3
Format/Info : Audio Coding 3
Commercial name : Dolby Digital
Codec ID : A_AC3
Duration : 1 h 56 min
Bit rate mode : Constant
Bit rate : 384 kb/s
Channel(s) : 6 channels
Channel layout : L R C LFE Ls Rs
Sampling rate : 48.0 kHz
Frame rate : 31.250 FPS (1536 SPF)
Bit depth : 16 bits
Compression mode : Lossy
Stream size : 321 MiB (1%)
Title : Дублированный
Language : Russian
Service kind : Complete Main
Default : Yes
Forced : No

Audio #2
ID : 3
Format : DTS
Format/Info : Digital Theater Systems
Codec ID : A_DTS
Duration : 1 h 57 min
Bit rate mode : Constant
Bit rate : 768 kb/s
Channel(s) : 2 channels
Channel layout : L R
Sampling rate : 48.0 kHz
Frame rate : 93.750 FPS (512 SPF)
Bit depth : 24 bits
Compression mode : Lossy
Stream size : 644 MiB (1%)
Title : Профессиональный многоголосый (Blu-ray CEE)
Language : Russian
Default : No
Forced : No

Audio #3
ID : 4
Format : AC-3
Format/Info : Audio Coding 3
Commercial name : Dolby Digital
Codec ID : A_AC3
Duration : 1 h 56 min
Bit rate mode : Constant
Bit rate : 448 kb/s
Channel(s) : 6 channels
Channel layout : L R C LFE Ls Rs
Sampling rate : 48.0 kHz
Frame rate : 31.250 FPS (1536 SPF)
Bit depth : 16 bits
Compression mode : Lossy
Stream size : 375 MiB (1%)
Title : Профессиональный многоголосый (Киномания)
Language : Russian
Service kind : Complete Main
Default : No
Forced : No

Audio #4
ID : 5
Format : DTS
Format/Info : Digital Theater Systems
Codec ID : A_DTS
Duration : 1 h 56 min
Bit rate : 1 758 kb/s
Channel(s) : 6 channels
Sampling rate : 48.0 kHz
Frame rate : 93.750 FPS (512 SPF)
Bit depth : 16 bits
Stream size : 1.43 GiB (3%)
Title : Авторский (Дмитрий «Гоблин» Пучков)
Language : Russian
Default : No
Forced : No

Audio #5
ID : 6
Format : AC-3
Format/Info : Audio Coding 3
Commercial name : Dolby Digital
Codec ID : A_AC3
Duration : 1 h 57 min
Bit rate mode : Constant
Bit rate : 640 kb/s
Channel(s) : 6 channels
Channel layout : L R C LFE Ls Rs
Sampling rate : 48.0 kHz
Frame rate : 31.250 FPS (1536 SPF)
Bit depth : 16 bits
Compression mode : Lossy
Stream size : 537 MiB (1%)
Title : Авторский (А.Гаврилов)
Language : Russian
Service kind : Complete Main
Default : No
Forced : No

Audio #6
ID : 7
Format : AC-3
Format/Info : Audio Coding 3
Commercial name : Dolby Digital
Codec ID : A_AC3
Duration : 1 h 57 min
Bit rate mode : Constant
Bit rate : 640 kb/s
Channel(s) : 6 channels
Channel layout : L R C LFE Ls Rs
Sampling rate : 48.0 kHz
Frame rate : 31.250 FPS (1536 SPF)
Bit depth : 16 bits
Compression mode : Lossy
Stream size : 537 MiB (1%)
Title : Авторский (Ю.Сербин)
Language : Russian
Service kind : Complete Main
Default : No
Forced : No

Audio #7
ID : 8
Format : AC-3
Format/Info : Audio Coding 3
Commercial name : Dolby Digital
Codec ID : A_AC3
Duration : 1 h 57 min
Bit rate mode : Constant
Bit rate : 640 kb/s
Channel(s) : 6 channels
Channel layout : L R C LFE Ls Rs
Sampling rate : 48.0 kHz
Frame rate : 31.250 FPS (1536 SPF)
Bit depth : 16 bits
Compression mode : Lossy
Stream size : 537 MiB (1%)
Title : Авторский (Ю.Живов)
Language : Russian
Service kind : Complete Main
Default : No
Forced : No

Audio #8
ID : 9
Format : AC-3
Format/Info : Audio Coding 3
Commercial name : Dolby Digital
Codec ID : A_AC3
Duration : 1 h 56 min
Bit rate mode : Constant
Bit rate : 192 kb/s
Channel(s) : 2 channels
Channel layout : L R
Sampling rate : 48.0 kHz
Frame rate : 31.250 FPS (1536 SPF)
Bit depth : 16 bits
Compression mode : Lossy
Stream size : 160 MiB (0%)
Title : Профессиональный многоголосый
Language : Ukrainian
Service kind : Complete Main
Default : No
Forced : No

Audio #9
ID : 10
Format : DTS XLL X
Format/Info : Digital Theater Systems
Commercial name : DTS-HD Master Audio
Codec ID : A_DTS
Duration : 1 h 57 min
Bit rate mode : Variable
Bit rate : 4 938 kb/s
Channel(s) : 8 channels
Channel(s)_Original : Object Based
Channel layout : Object Based
Sampling rate : 48.0 kHz
Frame rate : 93.750 FPS (512 SPF)
Bit depth : 24 bits
Stream size : 4.04 GiB (7%)
Language : English
Default : No
Forced : No

Text #1
ID : 11
Format : UTF-8
Codec ID : S_TEXT/UTF8
Codec ID/Info : UTF-8 Plain Text
Duration : 1 h 51 min
Bit rate : 102 b/s
Count of elements : 997
Stream size : 84.3 KiB (0%)
Title : Full (R5)
Language : Russian
Default : Yes
Forced : No

Text #2
ID : 12
Format : UTF-8
Codec ID : S_TEXT/UTF8
Codec ID/Info : UTF-8 Plain Text
Duration : 1 h 56 min
Bit rate : 83 b/s
Count of elements : 2019
Stream size : 70.7 KiB (0%)
Title : SDH
Language : English
Default : No
Forced : No

Menu
00:00:00.000 : :Chapter 1
00:03:45.391 : :Chapter 2
00:05:37.211 : :Chapter 3
00:07:39.208 : :Chapter 4
00:10:02.268 : :Chapter 5
00:16:27.736 : :Chapter 6
00:20:01.742 : :Chapter 7
00:25:03.627 : :Chapter 8
00:29:27.932 : :Chapter 9
00:37:18.945 : :Chapter 10
00:42:38.597 : :Chapter 11
00:48:12.306 : :Chapter 12
00:54:34.521 : :Chapter 13
01:01:40.321 : :Chapter 14
01:06:59.181 : :Chapter 15
01:13:44.670 : :Chapter 16
01:20:29.366 : :Chapter 17
01:26:05.034 : :Chapter 18
01:39:32.299 : :Chapter 19
01:44:28.262 : :Chapter 20
01:49:19.928 : :Chapter 21
01:52:37.751 : :Chapter 22


Релиз от: Релиз от: | Silverok


_________________
Проголосуй за трекер Открытый торрент трекер - RUS-MEDIA.ORG

Проголосуй Открытый торрент трекер - RUS-MEDIA.ORG


Скачать книги и аудио книги через торрент


Вернуться к началу
 Профиль Отправить личное сообщение  
 
   Похожие торренты   Автор   Торрент   Размер 
В этой теме нет новых непрочитанных сообщений. Большой Лебовски / The Big Lebowski [Комедия, криминал, 1998] UHDRip 1080p, Dub [Remastered]

salma3

0 | 0

14.07 ГБ

В этой теме нет новых непрочитанных сообщений. Большой Лебовски / The Big Lebowski [комедия, криминал, 1998] UHD BDRip 1080p, Dub [Remastered]

salma3

0 | 0

16.84 ГБ

В этой теме нет новых непрочитанных сообщений. Большой Лебовски / The Big Lebowsk [комедия, криминал, 1998] BDRip-HEVC 1080p, Dub

salma3

0 | 0

13.38 ГБ

В этой теме нет новых непрочитанных сообщений. Чёрный клановец / BlacKkKlansman [комедия, криминал, биография, 2018] UHD BDRemux 2160p, Dub [iTunes] [4K]

salma3

0 | 0

69.15 ГБ

В этой теме нет новых непрочитанных сообщений. Большое дело / The Big Hit [боевик, триллер, комедия, 1998] BDRemux 1080p, Dub+Sub

salma3

0 | 0

14.96 ГБ

В этой теме нет новых непрочитанных сообщений. Форсаж / The Fast and the Furious [Боевик, триллер, криминал, 2001] BDRemux 2160p, Dub [4K]

salma3

0 | 0

55.89 ГБ

В этой теме нет новых непрочитанных сообщений. Ганнибал / Hannibal [Триллер, драма, криминал, 2001] UHD BDRemux 2160p, Dub [лицензия] [4K]

salma3

0 | 0

65.74 ГБ


Начать новую тему Ответить на тему  [ 1 сообщение ] 




Для Мосгорсуда, Роскомнадзора и рекламодателей:: rstracker[собака]yandex.ru
cron