COVID-19 - Последняя информация о коронавирусе на сайте Минздрава




Торрент файл
скачать торрент магнет ссылка Добавлен: 12 окт 2018, 11:08
Размер: 53.1 ГБ
Сидеров: 0
Личеров: 0
Статус: (salma3)
Автор

СообщениеДобавлено: 12 окт 2018, 11:08 

Не в сети
Супермодератор
Аватара пользователя
Дата регистрации:
15 фев 2012, 16:44
Возраст: 30
Спасибо: 8263 / 2148
Сообщения: 96287
Год выхода: 1977
Жанр: Ужасы, мистика, драма
Режиссер: Дарио Ардженто

В ролях: Джессика Харпер, Стефания Казини, Флавио Буччи, Мигель Бозе, Барбара Магнолфи, Сузанна Явиколи, Эва Аксен, Рудольф Шюндлер, Удо Кир, Алида Валли

О фильме:
Юная американка Сюзи приезжает в Германию обучаться мастерству танца в старой римской балетной школе. В ночь приезда ее туда почему-то не пустили, но она видела, как из здания школы выбежала девушка, которая в ту же ночь будет жестоко убита. Наутро недоразумение разрешится, Сюзи примут, и она приступит к занятиям. Ее принудят остаться жить в пансионате при школе, на ночь будут поить вином с подмешанным снотворным, но девушка все равно почувствует витающую в воздухе школы мистическую угрозу и захочет выяснить, что ей угрожает…



Страна: Италия
Продолжительность: 01:40:50
Перевод: Профессиональный [многоголосый], авторский

Файл
Кодек: H.265
Качество: BDRemux 2160p
Видео: HEVC SDR, 64.8 Mбит/с, 3840x2160, 24.000 кадр/с
Звук:
Русский (AC3, 2 ch, 224 Кбит/с) / Профессиональный многоголосый (Селена Интернешенел)
Русский (DTS, 6 ch, 1510 Кбит/с) / Авторский (Гаврилов)
Русский (DTS, 6 ch, 1510 Кбит/с) / Авторский (Швецов)
Русский (DTS, 6 ch, 1510 Кбит/с) / Авторский (Визгунов)
Итальянский (DTS-HD MA, 6 ch, 2036 Кбит/с)
Английский (DTS-HD MA, 8 ch, 4000 Кбит/с)
Субтитры: Итальянские, английские

Семпл

General
Unique ID : 247336627585038774677939947730452204187 (0xBA134D3EE59074ABC05A0B92A63DCA9B)
Complete name : C:UsersPublicVideosSample VideosFilmySuspiria.1977.BDRemux.2160p.SDR.MediaClub.mkv
Format : Matroska
Format version : Version 4
File size : 53.1 GiB
Duration : 1 h 40 min
Overall bit rate mode : Variable
Overall bit rate : 75.4 Mb/s
Encoded date : UTC 2018-10-11 21:42:23
Writing application : mkvmerge v25.0.0 ('Prog Noir') 64-bit
Writing library : libebml v1.3.6 + libmatroska v1.4.9
Cover : Yes
Attachments : cover.jpg

Video
ID : 1
Format : HEVC
Format/Info : High Efficiency Video Coding
Format profile : Main 10@L5.1@High
Codec ID : V_MPEGH/ISO/HEVC
Duration : 1 h 40 min
Bit rate : 64.8 Mb/s
Width : 3 840 pixels
Height : 2 160 pixels
Display aspect ratio : 16:9
Frame rate mode : Constant
Frame rate : 24.000 FPS
Standard : Component
Color space : YUV
Chroma subsampling : 4:2:0
Bit depth : 10 bits
Bits/(Pixel*Frame) : 0.325
Stream size : 45.6 GiB (86%)
Title : BDRemux.2160p.SDR by Silverok
Default : Yes
Forced : No
Color range : Limited
Color primaries : BT.709
Transfer characteristics : BT.709
Matrix coefficients : BT.709

Audio #1
ID : 2
Format : AC-3
Format/Info : Audio Coding 3
Commercial name : Dolby Digital
Codec ID : A_AC3
Duration : 1 h 38 min
Bit rate mode : Constant
Bit rate : 224 kb/s
Channel(s) : 2 channels
Channel layout : L R
Sampling rate : 48.0 kHz
Frame rate : 31.250 FPS (1536 SPF)
Bit depth : 16 bits
Compression mode : Lossy
Stream size : 158 MiB (0%)
Title : Профессиональный многоголосый (Селена Интернешенел)
Language : Russian
Service kind : Complete Main
Default : Yes
Forced : No

Audio #2
ID : 3
Format : DTS
Format/Info : Digital Theater Systems
Codec ID : A_DTS
Duration : 1 h 38 min
Bit rate mode : Constant
Bit rate : 1 510 kb/s
Channel(s) : 6 channels
Channel layout : C L R Ls Rs LFE
Sampling rate : 48.0 kHz
Frame rate : 93.750 FPS (512 SPF)
Bit depth : 24 bits
Compression mode : Lossy
Stream size : 1.04 GiB (2%)
Title : Авторский (Гаврилов)
Language : Russian
Default : No
Forced : No

Audio #3
ID : 4
Format : DTS
Format/Info : Digital Theater Systems
Codec ID : A_DTS
Duration : 1 h 38 min
Bit rate mode : Constant
Bit rate : 1 510 kb/s
Channel(s) : 6 channels
Channel layout : C L R Ls Rs LFE
Sampling rate : 48.0 kHz
Frame rate : 93.750 FPS (512 SPF)
Bit depth : 24 bits
Compression mode : Lossy
Stream size : 1.04 GiB (2%)
Title : Авторский (Швецов)
Language : Russian
Default : No
Forced : No

Audio #4
ID : 5
Format : DTS
Format/Info : Digital Theater Systems
Codec ID : A_DTS
Duration : 1 h 38 min
Bit rate mode : Constant
Bit rate : 1 510 kb/s
Channel(s) : 6 channels
Channel layout : C L R Ls Rs LFE
Sampling rate : 48.0 kHz
Frame rate : 93.750 FPS (512 SPF)
Bit depth : 24 bits
Compression mode : Lossy
Stream size : 1.04 GiB (2%)
Title : Авторский (Визгунов)
Default : No
Forced : No

Audio #5
ID : 6
Format : DTS XLL
Format/Info : Digital Theater Systems
Commercial name : DTS-HD Master Audio
Codec ID : A_DTS
Duration : 1 h 39 min
Bit rate mode : Variable
Bit rate : 2 036 kb/s
Channel(s) : 6 channels
Channel layout : C L R Ls Rs LFE
Sampling rate : 48.0 kHz
Frame rate : 93.750 FPS (512 SPF)
Bit depth : 16 bits
Compression mode : Lossless
Stream size : 1.41 GiB (3%)
Language : Italian
Default : No
Forced : No

Audio #6
ID : 7
Format : DTS XLL
Format/Info : Digital Theater Systems
Commercial name : DTS-HD Master Audio
Codec ID : A_DTS
Duration : 1 h 39 min
Bit rate mode : Variable
Bit rate : 4 000 kb/s
Channel(s) : 6 channels
Channel layout : C L R Ls Rs LFE
Sampling rate : 48.0 kHz
Frame rate : 93.750 FPS (512 SPF)
Bit depth : 24 bits
Compression mode : Lossless
Stream size : 2.77 GiB (5%)
Language : English
Default : No
Forced : No

Text #1
ID : 8
Format : PGS
Muxing mode : zlib
Codec ID : S_HDMV/PGS
Codec ID/Info : Picture based subtitle format used on BDs/HD-DVDs
Duration : 1 h 33 min
Bit rate : 18.4 kb/s
Count of elements : 1216
Stream size : 12.2 MiB (0%)
Language : Italian
Default : No
Forced : No

Text #2
ID : 9
Format : PGS
Muxing mode : zlib
Codec ID : S_HDMV/PGS
Codec ID/Info : Picture based subtitle format used on BDs/HD-DVDs
Duration : 1 h 33 min
Bit rate : 19.8 kb/s
Count of elements : 1210
Stream size : 13.2 MiB (0%)
Language : English
Default : No
Forced : No

Menu
00:00:00.000 : en:Chapter 01
00:08:10.458 : en:Chapter 02
00:14:32.500 : en:Chapter 03
00:24:42.208 : en:Chapter 04
00:32:14.500 : en:Chapter 05
00:43:11.875 : en:Chapter 06
00:49:28.500 : en:Chapter 07
00:57:43.041 : en:Chapter 08
01:09:01.666 : en:Chapter 09
01:16:44.250 : en:Chapter 10
01:22:54.500 : en:Chapter 11
01:32:12.000 : en:Chapter 12


Релиз от: | Silverok


_________________
Проголосуй за трекер Открытый торрент трекер - RUS-MEDIA.ORG

Проголосуй Открытый торрент трекер - RUS-MEDIA.ORG


Скачать книги и аудио книги через торрент


Вернуться к началу
 Профиль Отправить личное сообщение  
 
   Похожие торренты   Автор   Торрент   Размер 
В этой теме нет новых непрочитанных сообщений. Суспирия / Suspiria [Ужасы, Мистика, 1977] UHD BDRemux 2160p, Mvo

salma3

0 | 0

53.38 ГБ

В этой теме нет новых непрочитанных сообщений. Суспирия / Suspiria [Ужасы, Мистика, 1977] UHD BDRip 2160p, Mvo

salma3

0 | 0

22.28 ГБ

В этой теме нет новых непрочитанных сообщений. Суспирия / Suspiria [Ужасы, Мистика, 1977] UHD BDRip 2160p, Mvo

salma3

0 | 0

22.72 ГБ

В этой теме нет новых непрочитанных сообщений. Суспирия / Suspiria [Ужасы, Мистика, 1977] UHD BDRip-HEVC 2160p, Mvo

salma3

0 | 0

26.12 ГБ

В этой теме нет новых непрочитанных сообщений. Суспирия / Suspiria [Ужасы, мистика, драма, 1977] BDRip 1080p, Mvo

salma3

0 | 0

10.62 ГБ

В этой теме нет новых непрочитанных сообщений. Туман / The Fog [Ужасы, мистика, 1980] BDRemux 2160p, Mvo [4K]

salma3

0 | 0

43.99 ГБ

В этой теме нет новых непрочитанных сообщений. Князь тьмы / Prince of darkness [Ужасы, мистика, 1987] BDRemux 2160p, Mvo [4K]

salma3

0 | 0

43.64 ГБ


Начать новую тему Ответить на тему  [ 1 сообщение ] 




Для Мосгорсуда, Роскомнадзора и рекламодателей:: rstracker[собака]yandex.ru
cron