COVID-19 - Последняя информация о коронавирусе на сайте Минздрава




Торрент файл
скачать торрент магнет ссылка Добавлен: 06 окт 2018, 12:27
Размер: 9.11 ГБ
Сидеров: 0
Личеров: 0
Статус: (salma3)
Автор

СообщениеДобавлено: 06 окт 2018, 12:27 

Не в сети
Супермодератор
Аватара пользователя
Дата регистрации:
15 фев 2012, 16:44
Возраст: 31
Спасибо: 8280 / 2148
Сообщения: 96717
Год выпуска: 1991
Выпущено: США, Tri-Star Pictures
Жанр: Комедия, приключения, семейный
Режиссер: Мэттью Роббинс

В ролях: Синди Уильямс, Роберт Дж. Стайнмиллер мл., Дэвид Френч, Курт Фуллер, Гленн Шэдикс, Джанет Райт, Уэйн Робсон, Сьюзи Плэксон

О фильме: Когда мальчик по имени Чаки Девлин встретил бездомного, сбежавшего из цирка пса, он сразу понял, что нашел себе самого преданного друга в жизни. Правда, парнишке приходится прятать своего Бинго от родителей, которые без восторга относятся к идее присутствия в доме самоходного комка линяющей шерсти. Но чудеса конспирации не помогли избежать разлуки. Чаки увозят на другой конец страны, и Бинго вновь остается один. Однако лишаться такого классного хозяина наш четвероногий герой не намерен. И храбрый Бинго отправляется на поиски Чаки через всю Америку. Переживая в пути множество удивительных приключений, верный пес с каждой минутой приближает момент встречи со своим другом…

Продолжительность: 01:29:51
Перевод: Профессиональный многоголосый, авторский
Субтитры: Английские
Навигация по главам: Есть

Файл
Качество: WEB-DL 1080p
Видео: MPEG-4 AVC, 13,6 Мбит/сек, 1920x1080, 23,976 кадра/сек
Аудио #1: AC3, 2 ch, 192 Кбит/сек | Русский, профессиональный (многоголосый закадровый) Savva Group Entertainment Video
Аудио #2: AC3, 2 ch, 192 Кбит/сек | Русский, авторский (одноголосый закадровый) Андрей Гаврилов
Аудио #3: EAC3, 2 ch, 224 Кбит/сек | Английский, оригинал



Общее
Уникальный идентификатор : 192138990369293587489237570544631602969 (0x908C9F9DEF808E0793564A1235C0DF19)
Полное имя : Мой.пес.Бинго.1991.WEB-DL.1080p.mkv
Формат : Matroska
Версия формата : Version 2
Размер файла : 9,11 Гбайт
Продолжительность : 1 ч. 29 м.
Общий поток : 14,5 Мбит/сек
Дата кодирования : UTC 2018-10-05 03:22:32
Программа кодирования : mkvmerge v5.8.0 ('No Sleep / Pillow') built on Sep 2 2012 15:37:04
Библиотека кодирования : libebml v1.2.3 + libmatroska v1.3.0

Видео
Идентификатор : 1
Формат : AVC
Формат/Информация : Advanced Video Codec
Профиль формата : High@L4
Настройки формата : CABAC / 4 Ref Frames
Параметр CABAC формата : Да
Параметр RefFrames формата : 4 кадра
Идентификатор кодека : V_MPEG4/ISO/AVC
Продолжительность : 1 ч. 29 м.
Битрейт : 13,6 Мбит/сек
Ширина : 1920 пикселей
Высота : 1080 пикселей
Соотношение сторон : 16:9
Режим частоты кадров : Постоянный
Частота кадров : 23,976 (24000/1001) кадра/сек
Цветовое пространство : YUV
Субдискретизация насыщенности : 4:2:0
Битовая глубина : 8 бит
Тип развёртки : Прогрессивная
Бит/(Пиксели*Кадры) : 0.274
Размер потока : 8,55 Гбайт (94%)
Язык : English
По умолчанию : Да
Принудительно : Нет
Цветовой диапазон : Limited
Основные цвета : BT.709
Характеристики трансфера : BT.709
Коэффициенты матрицы : BT.709

Аудио #1
Идентификатор : 2
Формат : AC-3
Формат/Информация : Audio Coding 3
Идентификатор кодека : A_AC3
Продолжительность : 1 ч. 29 м.
Вид битрейта : Постоянный
Битрейт : 192 Кбит/сек
Каналы : 2 канала
Расположение каналов : Front: L R
Частота : 48,0 КГц
Частота кадров : 31,250 кадров/сек (1536 SPF)
Битовая глубина : 16 бит
Метод сжатия : С потерями
Размер потока : 123 Мбайт (1%)
Заголовок : MVO | Savva Group Entertainment Video
Язык : Russian
По умолчанию : Да
Принудительно : Нет

Аудио #2
Идентификатор : 3
Формат : AC-3
Формат/Информация : Audio Coding 3
Идентификатор кодека : A_AC3
Продолжительность : 1 ч. 29 м.
Вид битрейта : Постоянный
Битрейт : 192 Кбит/сек
Каналы : 2 канала
Расположение каналов : Front: L R
Частота : 48,0 КГц
Частота кадров : 31,250 кадров/сек (1536 SPF)
Битовая глубина : 16 бит
Метод сжатия : С потерями
Размер потока : 123 Мбайт (1%)
Заголовок : AVO | А. Гаврилов
Язык : Russian
По умолчанию : Нет
Принудительно : Нет

Аудио #3
Идентификатор : 4
Формат : E-AC-3
Формат/Информация : Enhanced Audio Coding 3
Идентификатор кодека : A_EAC3
Продолжительность : 1 ч. 29 м.
Вид битрейта : Постоянный
Битрейт : 224 Кбит/сек
Каналы : 2 канала
Расположение каналов : Front: L R
Частота : 48,0 КГц
Частота кадров : 187,500 кадров/сек (256 SPF)
Метод сжатия : С потерями
Размер потока : 144 Мбайт (2%)
Заголовок : Original
Язык : English
По умолчанию : Нет
Принудительно : Нет

Текст
Идентификатор : 5
Формат : UTF-8
Идентификатор кодека : S_TEXT/UTF8
Идентификатор кодека/Информация : UTF-8 Plain Text
Заголовок : SDH
Язык : English
По умолчанию : Нет
Принудительно : Нет

Меню
00:00:00.192 : en:01. Start
00:04:28.560 : en:02. A Perilous Rings Of Fire
00:06:22.807 : en:03. "Let's Kill Him"
00:07:48.960 : en:04. Chuckie Devlin
00:09:27.825 : en:05. CPR
00:13:19.190 : en:06. Late For Dinner
00:17:32.243 : en:07. "You Smell Like Wet Dog."
00:19:32.196 : en:08. A Boy & His Dog
00:23:15.319 : en:09. Ladies' Man
00:26:20.103 : en:10. Let Off With A Warning
00:28:08.245 : en:11. DUKE'S
00:32:08.284 : en:12. The Inmates Take Over The Asylum
00:36:13.096 : en:13. Lennie & Eli
00:38:29.732 : en:14. "Got Any Chips?"
00:39:55.851 : en:15. 911
00:44:30.359 : en:16. Kennel Of Law
00:47:30.606 : en:17. Prisoner K9334
00:48:51.153 : en:18. Mail Call
00:51:27.009 : en:19. The Great Escape
00:56:14.930 : en:20. Nose Transplant
01:01:42.624 : en:21. Assistant Dishwasher
01:02:25.867 : en:22. $500 Reward
01:04:19.947 : en:23. Snitch Snatch
01:10:07.895 : en:24. "We've Got Your Kid, Lady"
01:12:45.953 : en:25. Let Loose The Dogs Of War
01:20:04.992 : en:26. Trapped!
01:22:16.123 : en:27. Bingo Saves The Day
01:24:06.733 : en:28. Every Dog Deserves A Boy
• Исходник видео WEB-DL Amazon.

Сборка:


_________________
Проголосуй за трекер Открытый торрент трекер - RUS-MEDIA.ORG

Проголосуй Открытый торрент трекер - RUS-MEDIA.ORG


Скачать книги и аудио книги через торрент


Вернуться к началу
 Профиль Отправить личное сообщение  
 
   Похожие торренты   Автор   Торрент   Размер 
В этой теме нет новых непрочитанных сообщений. Бинго / Bingo [комедия, приключения, семейный, 1991] WEB-DLRip, Mvo

salma3

0 | 0

1.45 ГБ

В этой теме нет новых непрочитанных сообщений. Пожарный пес / Firehouse Dog [Комедия, приключения, семейный, 2007] WEB-DL 1080p, Mvo

salma3

0 | 0

11.64 ГБ

В этой теме нет новых непрочитанных сообщений. Трудный ребенок 2 / Problem Child 2 [комедия, семейный, 1991] WEB-DL 1080p, Mvo

salma3

0 | 0

9.82 ГБ

В этой теме нет новых непрочитанных сообщений. Невероятные приключения янки в Африке / Yankee Zulu [Комедия, приключения, семейный, 1993] WEB-DL 1080p, Mvo

salma3

10 | 2

9.1 ГБ

В этой теме нет новых непрочитанных сообщений. Миллионеры / Parta za milión [семейный, комедия, приключения, 1991] TVRip, Mvo

salma3

0 | 0

1.06 ГБ

В этой теме нет новых непрочитанных сообщений. Трудный ребенок 2 / Problem Child 2 [комедия, семейный, 1991] BDRip 1080p, Mvo

salma3

0 | 0

7.28 ГБ

В этой теме нет новых непрочитанных сообщений. Больше чем жизнь / Larger Than Life [Комедия, приключения, семейный, 1996] WEB-DL 1080p, Mvo

salma3

0 | 1

9.34 ГБ


Начать новую тему Ответить на тему  [ 1 сообщение ] 




Для Мосгорсуда, Роскомнадзора и рекламодателей:: rstracker[собака]yandex.ru
cron