COVID-19 - Последняя информация о коронавирусе на сайте Минздрава




Торрент файл
скачать торрент магнет ссылка Добавлен: 30 сен 2018, 11:38
Размер: 5.55 ГБ
Сидеров: 0
Личеров: 0
Статус: (salma3)
Автор

СообщениеДобавлено: 30 сен 2018, 11:38 

Не в сети
Супермодератор
Аватара пользователя
Дата регистрации:
15 фев 2012, 16:44
Возраст: 30
Спасибо: 8263 / 2148
Сообщения: 96287
Год выпуска: 1957
Выпущено: США,
Жанр: Драма, приключения
Режиссер: Генри Хэтэуэй

В ролях: Джон Уэйн, Софи Лорен, Россано Брацци, Курт Казнар, Соня Мосер, Анжела Портулари, Ибрагим Эль Хадиш, Марша Хант

О фильме: Пол Боннард приезжает в Тимбукту и начинает искать проводника, который сопроводил бы его по африканской пустыне. Проводник находится в лице американца Джо, которому правда не сильно по душе маршрут, который избрал Боннард. Тем не менее в пустыне они и последовавшая за ними проститутка Дита обнаруживают руины древнего храма, где Боннард планирует отыскать сокровища, спрятанные когда-то давно его пропавшим отцом.

Продолжительность: 01:48:16
Перевод: Авторский
Субтитры: Английские
Навигация по главам: Есть

Файл
Качество: BDRip 720p
Видео: MPEG-4 AVC, 6763 Кбит/сек, 1280x544, 23,976 кадра/сек
Аудио #1: AC3, 2 ch, 192 Кбит/сек | Русский, авторский (одноголосый закадровый) Сергей Кузнецов
Аудио #2: AC3, 2 ch, 384 Кбит/сек | Английский, оригинал



x264 [info]: frame I:1056 Avg QP:16.03 size:136161
x264 [info]: frame P:26853 Avg QP:18.36 size: 62467
x264 [info]: frame B:127835 Avg QP:20.34 size: 28712
-----------------------------------------------------
Общее
Уникальный идентификатор : 248436208701403143213415212015361619757 (0xBAE712C7C61A79E29B7169DA26AE772D)
Полное имя : Легенда.о.потерянном.1957.BDRip.720p.KORSAR.mkv
Формат : Matroska
Версия формата : Version 2
Размер файла : 5,55 Гбайт
Продолжительность : 1 ч. 48 м.
Общий поток : 7341 Кбит/сек
Дата кодирования : UTC 2018-09-28 17:02:49
Программа кодирования : mkvmerge v5.8.0 ('No Sleep / Pillow') built on Sep 2 2012 15:37:04
Библиотека кодирования : libebml v1.2.3 + libmatroska v1.3.0

Видео
Идентификатор : 1
Формат : AVC
Формат/Информация : Advanced Video Codec
Профиль формата : High@L4.1
Настройки формата : CABAC / 12 Ref Frames
Параметр CABAC формата : Да
Параметр RefFrames формата : 12 кадров
Идентификатор кодека : V_MPEG4/ISO/AVC
Продолжительность : 1 ч. 48 м.
Битрейт : 6763 Кбит/сек
Ширина : 1280 пикселей
Высота : 544 пикселя
Соотношение сторон : 2,35:1
Режим частоты кадров : Постоянный
Частота кадров : 23,976 (24000/1001) кадра/сек
Цветовое пространство : YUV
Субдискретизация насыщенности : 4:2:0
Битовая глубина : 8 бит
Тип развёртки : Прогрессивная
Бит/(Пиксели*Кадры) : 0.405
Размер потока : 5,01 Гбайт (90%)
Заголовок : RIP | MZMA
Библиотека кодирования : x264 core 152 r2851kMod ba24899
Настройки программы : cabac=1 / ref=12 / deblock=1:-2:-2 / analyse=0x3:0x113 / me=umh / subme=11 / psy=1 / fade_compensate=0.00 / psy_rd=1.00:0.00 / mixed_ref=1 / me_range=48 / chroma_me=1 / trellis=2 / 8x8dct=1 / cqm=0 / deadzone=21,11 / fast_pskip=0 / chroma_qp_offset=-2 / threads=6 / lookahead_threads=1 / sliced_threads=0 / nr=0 / decimate=0 / interlaced=0 / bluray_compat=0 / constrained_intra=0 / bframes=16 / b_pyramid=2 / b_adapt=2 / b_bias=0 / direct=3 / weightb=1 / open_gop=0 / weightp=2 / keyint=240 / keyint_min=23 / scenecut=40 / intra_refresh=0 / rc_lookahead=40 / rc=2pass / mbtree=0 / bitrate=6763 / ratetol=1.0 / qcomp=0.60 / qpmin=0 / qpmax=69 / qpstep=4 / cplxblur=20.0 / qblur=0.5 / vbv_maxrate=50000 / vbv_bufsize=62500 / nal_hrd=none / filler=0 / ip_ratio=1.40 / pb_ratio=1.30 / aq=3:0.70
Язык : English
По умолчанию : Да
Принудительно : Нет
Цветовой диапазон : Limited
Основные цвета : BT.709
Характеристики трансфера : BT.709
Коэффициенты матрицы : BT.709

Аудио #1
Идентификатор : 2
Формат : AC-3
Формат/Информация : Audio Coding 3
Идентификатор кодека : A_AC3
Продолжительность : 1 ч. 48 м.
Вид битрейта : Постоянный
Битрейт : 192 Кбит/сек
Каналы : 2 канала
Расположение каналов : Front: L R
Частота : 48,0 КГц
Частота кадров : 31,250 кадров/сек (1536 SPF)
Битовая глубина : 16 бит
Метод сжатия : С потерями
Размер потока : 149 Мбайт (3%)
Заголовок : AVO | С. Кузнецов
Язык : Russian
По умолчанию : Да
Принудительно : Нет

Аудио #2
Идентификатор : 3
Формат : AC-3
Формат/Информация : Audio Coding 3
Идентификатор кодека : A_AC3
Продолжительность : 1 ч. 48 м.
Вид битрейта : Постоянный
Битрейт : 384 Кбит/сек
Каналы : 2 канала
Расположение каналов : Front: L R
Частота : 48,0 КГц
Частота кадров : 31,250 кадров/сек (1536 SPF)
Битовая глубина : 16 бит
Метод сжатия : С потерями
Размер потока : 297 Мбайт (5%)
Заголовок : Original
Язык : English
По умолчанию : Нет
Принудительно : Нет

Текст
Идентификатор : 4
Формат : UTF-8
Идентификатор кодека : S_TEXT/UTF8
Идентификатор кодека/Информация : UTF-8 Plain Text
Язык : English
По умолчанию : Нет
Принудительно : Нет

Меню
00:00:00.083 : en:Chapter 01
00:00:15.724 : en:Chapter 02
00:03:04.642 : en:Chapter 03
00:09:00.623 : en:Chapter 04
00:10:26.334 : en:Chapter 05
00:15:00.983 : en:Chapter 06
00:18:01.163 : en:Chapter 07
00:19:36.258 : en:Chapter 08
00:24:01.523 : en:Chapter 09
00:27:01.703 : en:Chapter 10
00:30:01.883 : en:Chapter 11
00:33:02.063 : en:Chapter 12
00:36:02.243 : en:Chapter 13
00:38:11.747 : en:Chapter 14
00:41:08.174 : en:Chapter 15
00:45:02.783 : en:Chapter 16
00:48:02.963 : en:Chapter 17
00:50:08.088 : en:Chapter 18
00:54:42.112 : en:Chapter 19
00:57:03.503 : en:Chapter 20
01:00:03.683 : en:Chapter 21
01:03:03.863 : en:Chapter 22
01:06:18.432 : en:Chapter 23
01:09:04.223 : en:Chapter 24
01:12:04.403 : en:Chapter 25
01:15:04.583 : en:Chapter 26
01:18:04.763 : en:Chapter 27
01:21:04.943 : en:Chapter 28
01:24:05.123 : en:Chapter 29
01:26:53.416 : en:Chapter 30
01:30:05.483 : en:Chapter 31
01:33:05.663 : en:Chapter 32
01:36:05.843 : en:Chapter 33
01:37:47.820 : en:Chapter 34
01:38:51.634 : en:Chapter 35
01:43:03.760 : en:Chapter 36
01:48:06.563 : en:Chapter 37

Релиз от:


_________________
Проголосуй за трекер Открытый торрент трекер - RUS-MEDIA.ORG

Проголосуй Открытый торрент трекер - RUS-MEDIA.ORG


Скачать книги и аудио книги через торрент


Вернуться к началу
 Профиль Отправить личное сообщение  
 
   Похожие торренты   Автор   Торрент   Размер 
В этой теме нет новых непрочитанных сообщений. Тaрзан. Легенда / Thе Legend of Tarzan [драма, мелодрама, приключения, 2016] BDRip, Avo [Живов]

salma3

21 | 5

1.46 ГБ

В этой теме нет новых непрочитанных сообщений. Моджин / Моцзинь. Потерянная легенда / Xun Long Jue / Mojin: The Lost Legend [приключения, фэнтези, боевик, 2015] BDRip 1080p, Dvo [Лицензия] [3D-Video]

salma3

0 | 0

19.44 ГБ

В этой теме нет новых непрочитанных сообщений. Легенда об одиноком рейнджере / The Legend of the Lone Ranger [приключения, вестерн, 1981] HDRip-AVC, Avo

salma3

0 | 0

1.31 ГБ

В этой теме нет новых непрочитанных сообщений. Легенда / Legend [фэнтези, мелодрама, приключения, 1985] BDRip 1080p, Mvo [Director's Cut]

salma3

0 | 0

13.74 ГБ

В этой теме нет новых непрочитанных сообщений. Затерянный мир / The Lost World [Приключения, фантастика, 1960] BDRip 720p, Avo

salma3

1 | 0

4.51 ГБ

В этой теме нет новых непрочитанных сообщений. Легенда о святом пропойце / La leggenda del santo bevitore / The Legend of the Holy Drinker [драма, 1988] BDRemux 1080р, Avo [Remastered]

salma3

0 | 0

36.87 ГБ

В этой теме нет новых непрочитанных сообщений. Большая легенда / Big Legend [Боевик, Триллер, Ужасы, 2018] WEB-DL 1080p, Avo

salma3

0 | 1

6.36 ГБ


Начать новую тему Ответить на тему  [ 1 сообщение ] 




Для Мосгорсуда, Роскомнадзора и рекламодателей:: rstracker[собака]yandex.ru
cron