COVID-19 - Последняя информация о коронавирусе на сайте Минздрава | СИДИТЕ ДОМА!




Торрент файл
скачать торрент магнет ссылка Добавлен: 25 сен 2018, 11:58
Размер: 3.33 ГБ
Сидеров: 0
Личеров: 0
Статус: (salma3)
Автор

СообщениеДобавлено: 25 сен 2018, 11:58 

Не в сети
Супермодератор
Аватара пользователя
Дата регистрации:
15 фев 2012, 16:44
Возраст: 30
Спасибо: 8214 / 2148
Сообщения: 95872
Год выпуска: 2018
Жанр: Мультфильм, фэнтези, комедия
Режиссер: Генндий Тартаковский

В ролях: Мэл Брукс, Адам Сэндлер, Селена Гомес, Энди Сэмберг, Кэтрин Хан, Фрэн Дрешер, Стив Бушеми, Дэвид Спейд, Тара Стронг, Кигэн-Майкл Ки

О фильме:
На этот раз Дракула вместе со своими друзьями отправляется в круиз на шикарном лайнере. Развлечения там на любой вкус: от монстробаскетбола и экзотических экскурсий, до лунных ванн. Неожиданно Дракула влюбляется в капитана корабля — загадочную и прекрасную Эрику, и его дочка Мэвис понимает, что поездка может превратиться в кошмар: ведь Эрика хранит ужасный секрет, который ставит под угрозу существование всех монстров!



Страна: США
Продолжительность: 01:37:19
Перевод: Дублированный | iTunes

Файл
Качество: WEB-DL 720p
Видео: MPEG-4 AVC, 1280x688, 4006 Kbit/s, 23.976 fps
Аудио01: 48 kHz, AC3, 5.1, 384 Kbps | iTunes | RUS
Аудио02: 48 kHz, AAC, 2.0, 127 Kbps | iTunes | UKR
Аудио03: 48 kHz, AC3, 5.1, 384 Kbps | Оригинал | ENG
Субтитры: Русские (forced, full), украинские (full), английские (full, SDH)

General
Unique ID : 211752235991022472113179498537699839630 (0x9F4DFF49102F3DE08712B4E219710E8E)
Complete name : D:Video111Hotel.Transylvania.3.WEB-DL.720p.Rus.Ukr.Eng.TeamHD.mkv
Format : Matroska
Format version : Version 4 / Version 2
File size : 3.33 GiB
Duration : 1 h 37 min
Overall bit rate : 4 904 kb/s
Movie name : Hotel Transylvania 3: Summer Vacation (2018) TeamHD
Encoded date : UTC 2018-09-24 18:53:23
Writing application : mkvmerge v7.3.0 ('Nouages') 64bit built on Oct 22 2014 18:53:34
Writing library : libebml v1.3.0 + libmatroska v1.4.1

Video
ID : 1
Format : AVC
Format/Info : Advanced Video Codec
Format profile : High@L3.1
Format settings : 2 Ref Frames
Format settings, CABAC : No
Format settings, ReFrames : 2 frames
Codec ID : V_MPEG4/ISO/AVC
Duration : 1 h 37 min
Bit rate : 4 006 kb/s
Width : 1 280 pixels
Height : 688 pixels
Display aspect ratio : 1.85:1
Frame rate mode : Constant
Frame rate : 23.976 (23976/1000) FPS
Color space : YUV
Chroma subsampling : 4:2:0
Bit depth : 8 bits
Scan type : Progressive
Bits/(Pixel*Frame) : 0.190
Stream size : 2.72 GiB (82%)
Language : English
Default : Yes
Forced : No
Color range : Limited
Color primaries : BT.709
Transfer characteristics : BT.709
Matrix coefficients : BT.709

Audio #1
ID : 2
Format : AC-3
Format/Info : Audio Coding 3
Commercial name : Dolby Digital
Codec ID : A_AC3
Duration : 1 h 37 min
Bit rate mode : Constant
Bit rate : 384 kb/s
Channel(s) : 6 channels
Channel layout : L R C LFE Ls Rs
Sampling rate : 48.0 kHz
Frame rate : 31.250 FPS (1536 SPF)
Bit depth : 16 bits
Compression mode : Lossy
Stream size : 267 MiB (8%)
Title : iTunes
Language : Russian
Service kind : Complete Main
Default : Yes
Forced : Yes

Audio #2
ID : 3
Format : AAC LC
Format/Info : Advanced Audio Codec Low Complexity
Codec ID : A_AAC-2
Duration : 1 h 37 min
Bit rate : 127 kb/s
Channel(s) : 2 channels
Channel layout : L R
Sampling rate : 48.0 kHz
Frame rate : 46.875 FPS (1024 SPF)
Compression mode : Lossy
Stream size : 88.3 MiB (3%)
Title : iTunes
Language : Ukrainian
Default : No
Forced : No

Audio #3
ID : 4
Format : AC-3
Format/Info : Audio Coding 3
Commercial name : Dolby Digital
Codec ID : A_AC3
Duration : 1 h 37 min
Bit rate mode : Constant
Bit rate : 384 kb/s
Channel(s) : 6 channels
Channel layout : L R C LFE Ls Rs
Sampling rate : 48.0 kHz
Frame rate : 31.250 FPS (1536 SPF)
Bit depth : 16 bits
Compression mode : Lossy
Stream size : 267 MiB (8%)
Title : Original
Language : English
Service kind : Complete Main
Default : No
Forced : No

Text #1
ID : 5
Format : UTF-8
Codec ID : S_TEXT/UTF8
Codec ID/Info : UTF-8 Plain Text
Duration : 1 h 36 min
Bit rate : 0 b/s
Count of elements : 5
Stream size : 171 Bytes (0%)
Title : Forced
Language : Russian
Default : Yes
Forced : Yes

Text #2
ID : 6
Format : UTF-8
Codec ID : S_TEXT/UTF8
Codec ID/Info : UTF-8 Plain Text
Duration : 1 h 36 min
Bit rate : 76 b/s
Count of elements : 1118
Stream size : 54.4 KiB (0%)
Title : Full
Language : Russian
Default : No
Forced : No

Text #3
ID : 7
Format : UTF-8
Codec ID : S_TEXT/UTF8
Codec ID/Info : UTF-8 Plain Text
Duration : 1 h 36 min
Bit rate : 71 b/s
Count of elements : 1118
Stream size : 50.4 KiB (0%)
Title : Full
Language : Ukrainian
Default : No
Forced : No

Text #4
ID : 8
Format : UTF-8
Codec ID : S_TEXT/UTF8
Codec ID/Info : UTF-8 Plain Text
Duration : 1 h 26 min
Bit rate : 47 b/s
Count of elements : 1098
Stream size : 30.1 KiB (0%)
Title : Full
Language : English
Default : No
Forced : No

Text #5
ID : 9
Format : UTF-8
Codec ID : S_TEXT/UTF8
Codec ID/Info : UTF-8 Plain Text
Duration : 1 h 26 min
Bit rate : 47 b/s
Count of elements : 1098
Stream size : 30.1 KiB (0%)
Title : SDH
Language : English
Default : No
Forced : No

Menu
00:00:00.000 : en:1
00:04:28.935 : en:2
00:09:34.824 : en:3
00:16:02.044 : en:4
00:20:03.075 : en:5
00:24:34.930 : en:6
00:31:12.535 : en:7
00:36:49.205 : en:8
00:44:04.723 : en:9
00:49:57.699 : en:10
00:54:49.740 : en:11
01:00:34.875 : en:12
01:06:12.003 : en:13
01:10:32.262 : en:14
01:13:46.371 : en:15
01:24:56.541 : en:16


Релиз от: Автор релиза:


_________________
Проголосуй за трекер Открытый торрент трекер - RUS-MEDIA.ORG

Проголосуй Открытый торрент трекер - RUS-MEDIA.ORG


Скачать книги и аудио книги через торрент


Вернуться к началу
 Профиль Отправить личное сообщение  
 
   Похожие торренты   Автор   Торрент   Размер 
В этой теме нет новых непрочитанных сообщений. Монстры на каникулах 3 / Hotel Transylvania 3 [Мультфильм, фэнтези, комедия, 2018] WEB-DL 1080p, Dub [iTunes]

salma3

0 | 0

4.09 ГБ

В этой теме нет новых непрочитанных сообщений. Монстры на каникулах 3: Море зовёт / Hotel Transylvania 3: Summer Vacation [Мультфильм, фэнтези, комедия, 2018] WEB-DLRip, Dub [iTunes]

salma3

0 | 0

1.46 ГБ

В этой теме нет новых непрочитанных сообщений. Монстры на каникулах 3: Море зовёт / Hotel Transylvania 3: Summer Vacation [Мультфильм, фэнтези, комедия, 2018] WEB-DLRip-AVC, Dub [iTunes]

salma3

0 | 0

1.92 ГБ

В этой теме нет новых непрочитанных сообщений. Монстры на каникулах 3: Море зовёт / Hotel Transylvania 3: Summer Vacation [Мультфильм, фэнтези, комедия, 2018] BDRip 720p, Dub [Лицензия]

salma3

0 | 0

5.15 ГБ

В этой теме нет новых непрочитанных сообщений. Монстры на каникулах 3: Море зовёт / Hotel Transylvania 3: Summer Vacation [Мультфильм, фэнтези, комедия, 2018] BDRip, Dub [Лицензия]

salma3

0 | 0

747.57 МБ

В этой теме нет новых непрочитанных сообщений. Монстры на каникулах 3: Море зовёт / Hotel Transylvania 3: Summer Vacation [Мультфильм, фэнтези, комедия, 2018] BDRip 1080p, Dub [Лицензия]

salma3

0 | 0

13.35 ГБ

В этой теме нет новых непрочитанных сообщений. Монстры на каникулах 3:Море зовёт / Hotel Transylvania 3: Summer Vacation [Мультипликация, 2018] BDRip-HEVC 1080p, Dub [iTunes]

salma3

0 | 0

3.67 ГБ


Начать новую тему Ответить на тему  [ 1 сообщение ] 




Для Мосгорсуда, Роскомнадзора и рекламодателей:: rstracker[собака]yandex.ru
cron