COVID-19 - Последняя информация о коронавирусе на сайте Минздрава




Торрент файл
скачать торрент магнет ссылка Добавлен: 21 сен 2018, 14:54
Размер: 3.68 ГБ
Сидеров: 0
Личеров: 0
Статус: (salma3)
Автор

СообщениеДобавлено: 21 сен 2018, 14:54 

Не в сети
Супермодератор
Аватара пользователя
Дата регистрации:
15 фев 2012, 16:44
Возраст: 31
Спасибо: 8280 / 2148
Сообщения: 96711
Год выхода: 1981
Жанр: ужасы, триллер
Режиссер: Том ДеСимоне

В ролях: Линда Блэр, Винсент Ван Паттен, Питер Бартон, Кевин Брофи, Дженни Ньюманн, Сьюки Гудвин, Джимми Стюртвент, Хэл Ралстон, Кэри Фокс, Рон Гэнс

Описание: Четверо студентов колледжа устраивают «посвящение» в члены студенческого братства Alpha Sigma Rho новых учеников. С этой целью они проникают в старое заброшенное поместье, когда — то принадлежавшее семейству миллионера Гарта. Но у дома оказывается очень страшное прошлое. Двенадцать лет назад глава семьи Рэймонд убил всю свою семью, состоявшую из трех умственно отсталых детей, прежде чем покончить жизнь самоубийством. Но тело самого младшего сына, 14 — летнего Эндрю, так и не было обнаружено…



Страна: США
Продолжительность: 01:41:59
Перевод: Любительский (одноголосый закадровый) Андрей Васильвев
Субтитры: английские

Файл
Качество: BDRip 720p
Видео: MPEG-4 AVC, 7700 Kbps, 1280x546
Аудио 1: Russian; AC3; 48.0 KHz; 2ch; 192 Kbps | Андрей Васильев
Аудио 2: English; AAC; 48.0 KHz; 2ch; 135 Kbps | Original
Аудио 3: English; AAC; 48.0 KHz; 2ch; 79 Kbps | Commentary with Irwin Yablans, Bruce Cohn Curtis, Linda Blair and Tom DeSimon

General
Unique ID : 257732092821420084847646205261140537599 (0xC1E56540C3040D725A65429DEEA130FF)
Complete name : Hell.Night.1981.BDRip.720p.mkv
Format : Matroska
Format version : Version 4 / Version 2
File size : 3.68 GiB
Duration : 1 h 41 min
Overall bit rate : 5 166 kb/s
Movie name : Hell Night 1981 - M3LL155X
Encoded date : UTC 2018-09-13 23:33:44
Writing application : mkvmerge v25.0.0 ('Prog Noir') 64-bit
Writing library : libebml v1.3.6 + libmatroska v1.4.9
Video
ID : 1
Format : AVC
Format/Info : Advanced Video Codec
Format profile : High@L4.1
Format settings : CABAC / 9 Ref Frames
Format settings, CABAC : Yes
Format settings, ReFrames : 9 frames
Codec ID : V_MPEG4/ISO/AVC
Duration : 1 h 41 min
Bit rate : 4 757 kb/s
Width : 1 280 pixels
Height : 692 pixels
Display aspect ratio : 1.85:1
Frame rate mode : Constant
Frame rate : 23.976 (24000/1001) FPS
Color space : YUV
Chroma subsampling : 4:2:0
Bit depth : 8 bits
Scan type : Progressive
Bits/(Pixel*Frame) : 0.224
Stream size : 3.39 GiB (92%)
Title : Hell.Night.1981.720p.BluRay.AAC2.0.x264-M3LL155X
Writing library : x264 core 152 r2851+58 429492e t_mod_Custom [8-bit@all X86_64]
Encoding settings : cabac=1 / ref=9 / deblock=1:-3:-3 / analyse=0x3:0x133 / me=umh / subme=10 / psy=1 / fade_compensate=0.00 / psy_rd=1.00:0.00 / mixed_ref=1 / me_range=48 / chroma_me=1 / trellis=2 / 8x8dct=1 / cqm=0 / deadzone=21,11 / fast_pskip=0 / chroma_qp_offset=-2 / threads=6 / lookahead_threads=1 / sliced_threads=0 / nr=0 / decimate=0 / interlaced=0 / bluray_compat=0 / constrained_intra=0 / fgo=0 / bframes=8 / b_pyramid=2 / b_adapt=2 / b_bias=0 / direct=3 / weightb=1 / open_gop=0 / weightp=2 / keyint=250 / keyint_min=23 / scenecut=40 / intra_refresh=0 / rc=crf / mbtree=0 / crf=17.5000 / qcomp=0.65 / qpmin=0:0:0 / qpmax=69:69:69 / qpstep=4 / ip_ratio=1.30 / pb_ratio=1.20 / aq=1:0.60 / aq-sensitivity=10.00 / aq-factor=1.00:1.00:1.00 / aq2=0 / aq3=0
Language : English
Default : Yes
Forced : No
Audio #1
ID : 2
Format : AC-3
Format/Info : Audio Coding 3
Codec ID : A_AC3
Duration : 1 h 41 min
Bit rate mode : Constant
Bit rate : 192 kb/s
Channel(s) : 2 channels
Channel positions : Front: L R
Sampling rate : 48.0 kHz
Frame rate : 31.250 FPS (1536 SPF)
Bit depth : 16 bits
Compression mode : Lossy
Stream size : 140 MiB (4%)
Title : VO Андрей Васильев
Language : Russian
Service kind : Complete Main
Default : Yes
Forced : No
Audio #2
ID : 3
Format : AAC
Format/Info : Advanced Audio Codec
Format profile : LC
Codec ID : A_AAC-2
Duration : 1 h 41 min
Bit rate : 135 kb/s
Channel(s) : 2 channels
Channel positions : Front: L R
Sampling rate : 48.0 kHz
Frame rate : 46.875 FPS (1024 SPF)
Compression mode : Lossy
Delay relative to video : 21 ms
Stream size : 98.7 MiB (3%)
Title : Original
Language : English
Default : No
Forced : No
Audio #3
ID : 4
Format : AAC
Format/Info : Advanced Audio Codec
Format profile : LC
Codec ID : A_AAC-2
Duration : 1 h 41 min
Bit rate : 78.7 kb/s
Channel(s) : 2 channels
Channel positions : Front: L R
Sampling rate : 48.0 kHz
Frame rate : 46.875 FPS (1024 SPF)
Compression mode : Lossy
Delay relative to video : 20 ms
Stream size : 57.4 MiB (2%)
Title : Commentary with Irwin Yablans, Bruce Cohn Curtis, Linda Blair and Tom DeSimone
Language : English
Default : No
Forced : No
Text #1
ID : 5
Format : UTF-8
Codec ID : S_TEXT/UTF8
Codec ID/Info : UTF-8 Plain Text
Duration : 1 h 29 min
Bit rate : 31 b/s
Count of elements : 746
Stream size : 20.5 KiB (0%)
Language : English
Default : No
Forced : No
Text #2
ID : 6
Format : UTF-8
Codec ID : S_TEXT/UTF8
Codec ID/Info : UTF-8 Plain Text
Duration : 1 h 38 min
Bit rate : 32 b/s
Count of elements : 942
Stream size : 23.3 KiB (0%)
Title : SDH
Language : English
Default : No
Forced : No
Menu
00:00:00.000 : en:00:00:00.000
00:10:29.128 : en:00:10:29.128
00:18:51.380 : en:00:18:51.380
00:27:54.089 : en:00:27:54.089
00:35:55.570 : en:00:35:55.570
00:41:45.503 : en:00:41:45.503
00:50:01.498 : en:00:50:01.498
00:58:30.882 : en:00:58:30.882
01:05:44.816 : en:01:05:44.816
01:14:42.186 : en:01:14:42.186
01:22:27.192 : en:01:22:27.192
01:37:52.992 : en:01:37:52.992

ЦитатаКто-то писал:
Синхронизация звука GoldDust


_________________
Проголосуй за трекер Открытый торрент трекер - RUS-MEDIA.ORG

Проголосуй Открытый торрент трекер - RUS-MEDIA.ORG


Скачать книги и аудио книги через торрент


Вернуться к началу
 Профиль Отправить личное сообщение  
 
   Похожие торренты   Автор   Торрент   Размер 
В этой теме нет новых непрочитанных сообщений. Адская ночь / Hell of a Night [Ужасы, триллер, 2019] WEB-DL 1080p, Mvo

salma3

6 | 1

3.01 ГБ

В этой теме нет новых непрочитанных сообщений. Адская ночь / Hell of a Night [Ужасы, триллер, 2019] WEB-DLRip, Mvo

salma3

0 | 0

1.46 ГБ

В этой теме нет новых непрочитанных сообщений. Адская ночь / Hell of a Night [Ужасы, триллер, 2019] WEB-DLRip-AVC, Mvo

salma3

0 | 0

1.72 ГБ

В этой теме нет новых непрочитанных сообщений. Тихая ночь, смертельная ночь 2 / Silent Night, Deadly Night 2 [ужасы, триллер, 1987] BDRip 720р, Avo

salma3

0 | 0

3.32 ГБ

В этой теме нет новых непрочитанных сообщений. Неудачная ночь / Ночь накануне Хэллоуина / Mischief Night / The Night Before Halloween [ужасы, триллер, драма, 2013] BDRip 1080p, Avo

salma3

0 | 0

5.61 ГБ

В этой теме нет новых непрочитанных сообщений. Другой ад / L'altro inferno / The Other Hell [ужасы, триллер, 1981] BDRip 720p, Avo

salma3

0 | 0

5.09 ГБ

В этой теме нет новых непрочитанных сообщений. Ночь Лепуса / Night of the Lepus [ужасы, фантастика, триллер, 1972] BDRip 720p, Avo

salma3

0 | 0

8.57 ГБ


Начать новую тему Ответить на тему  [ 1 сообщение ] 




Для Мосгорсуда, Роскомнадзора и рекламодателей:: rstracker[собака]yandex.ru
cron