COVID-19 - Последняя информация о коронавирусе на сайте Минздрава




Торрент файл
скачать торрент магнет ссылка Добавлен: 20 сен 2018, 11:52
Размер: 8.32 ГБ
Сидеров: 0
Личеров: 0
Статус: (salma3)
Автор

СообщениеДобавлено: 20 сен 2018, 11:52 

Не в сети
Супермодератор
Аватара пользователя
Дата регистрации:
15 фев 2012, 16:44
Возраст: 32
Спасибо: 8298 / 2148
Сообщения: 97035
Год выпуска: 1971
Выпущено: Великобритания, Michael Deeley-Peter Yates Films, Hemdale
Жанр: Драма, военный
Режиссер: Питер Йетс

В ролях: Питер О`Тул, Шан Филлипс, Филипп Нуаре, Хорст Йенсон, Джон Хэллэм

О фильме: Последние дни Второй мировой войны. Английский моряк Мерфи (Питер О’Тул) единственный остался в живых. Все члены его команды погибли: немецкая подлодка потопила судно. Оказавшись на забытом острове, он, одержимый местью, начинает копить силы, чтобы покончить с немецкой армией. Но это – его личная война.

Продолжительность: 01:46:38
Перевод: Профессиональный многоголосый
Субтитры: Английские
Навигация по главам: Есть

Файл
Качество: WEB-DL 1080p
Видео: MPEG-4 AVC, 10,6 Мбит/сек, 1920x816, 23,976 кадра/сек
Аудио #1: AC3, 2 ch, 192 Кбит/сек | Русский, профессиональный (многоголосый закадровый)
Аудио #2: AC3, 2 ch, 192 Кбит/сек | Английский, оригинал



Общее
Уникальный идентификатор : 236115286661610176043651840240067901309 (0xB1A2266C5BBC6E28BFC5B4E2FD59777D)
Полное имя : Война.Мерфи.1971.WEB-DL.1080p.mkv
Формат : Matroska
Версия формата : Version 2
Размер файла : 8,32 Гбайт
Продолжительность : 1 ч. 46 м.
Режим общего битрейта : Переменный
Общий поток : 11,2 Мбит/сек
Дата кодирования : UTC 2018-09-18 17:17:24
Программа кодирования : mkvmerge v5.8.0 ('No Sleep / Pillow') built on Sep 2 2012 15:37:04
Библиотека кодирования : libebml v1.2.3 + libmatroska v1.3.0

Видео
Идентификатор : 1
Формат : AVC
Формат/Информация : Advanced Video Codec
Профиль формата : High@L4
Настройки формата : CABAC / 4 Ref Frames
Параметр CABAC формата : Да
Параметр RefFrames формата : 4 кадра
Идентификатор кодека : V_MPEG4/ISO/AVC
Продолжительность : 1 ч. 46 м.
Вид битрейта : Переменный
Битрейт : 10,6 Мбит/сек
Максимальный битрейт : 15,0 Мбит/сек
Ширина : 1920 пикселей
Высота : 816 пикселей
Соотношение сторон : 2,35:1
Режим частоты кадров : Постоянный
Частота кадров : 23,976 (24000/1001) кадра/сек
Цветовое пространство : YUV
Субдискретизация насыщенности : 4:2:0
Битовая глубина : 8 бит
Тип развёртки : Прогрессивная
Бит/(Пиксели*Кадры) : 0.281
Размер потока : 7,87 Гбайт (95%)
Язык : English
По умолчанию : Да
Принудительно : Нет
Цветовой диапазон : Limited
Основные цвета : BT.709
Характеристики трансфера : BT.709
Коэффициенты матрицы : BT.709

Аудио #1
Идентификатор : 2
Формат : AC-3
Формат/Информация : Audio Coding 3
Идентификатор кодека : A_AC3
Продолжительность : 1 ч. 46 м.
Вид битрейта : Постоянный
Битрейт : 192 Кбит/сек
Каналы : 2 канала
Расположение каналов : Front: L R
Частота : 48,0 КГц
Частота кадров : 31,250 кадров/сек (1536 SPF)
Битовая глубина : 16 бит
Метод сжатия : С потерями
Размер потока : 146 Мбайт (2%)
Заголовок : MVO
Язык : Russian
По умолчанию : Да
Принудительно : Нет

Аудио #2
Идентификатор : 3
Формат : AC-3
Формат/Информация : Audio Coding 3
Идентификатор кодека : A_AC3
Продолжительность : 1 ч. 46 м.
Вид битрейта : Постоянный
Битрейт : 192 Кбит/сек
Каналы : 2 канала
Расположение каналов : Front: L R
Частота : 48,0 КГц
Частота кадров : 31,250 кадров/сек (1536 SPF)
Битовая глубина : 16 бит
Метод сжатия : С потерями
Размер потока : 146 Мбайт (2%)
Заголовок : Original
Язык : English
По умолчанию : Нет
Принудительно : Нет

Текст #1
Идентификатор : 4
Формат : UTF-8
Идентификатор кодека : S_TEXT/UTF8
Идентификатор кодека/Информация : UTF-8 Plain Text
Язык : English
По умолчанию : Нет
Принудительно : Нет

Текст #2
Идентификатор : 5
Формат : UTF-8
Идентификатор кодека : S_TEXT/UTF8
Идентификатор кодека/Информация : UTF-8 Plain Text
Заголовок : SDH 1
Язык : English
По умолчанию : Нет
Принудительно : Нет

Текст #3
Идентификатор : 6
Формат : UTF-8
Идентификатор кодека : S_TEXT/UTF8
Идентификатор кодека/Информация : UTF-8 Plain Text
Заголовок : SDH 2
Язык : English
По умолчанию : Нет
Принудительно : Нет

Меню
00:00:00.000 : en:01. Battle At Sea
00:05:42.154 : en:02. German Submarine
00:15:29.791 : en:03. Medical Attention
00:25:28.639 : en:04. Plane Restoration
00:32:34.181 : en:05. Murphy's First Flight
00:46:54.040 : en:06. Makeshift Bombs
00:56:26.112 : en:07. Sink The Sub
01:05:25.451 : en:08. Endangered Village
01:15:08.733 : en:09. The War Is Over
01:25:31.155 : en:10. Torpedo Troubles
01:32:50.711 : en:11. Small And Lonely Men
01:36:55.872 : en:12. Seek And Destroy
01:41:44.661 : en:13. Watery Grave

Сборка:


_________________
Проголосуй за трекер Открытый торрент трекер - RUS-MEDIA.ORG

Проголосуй Открытый торрент трекер - RUS-MEDIA.ORG


Скачать книги и аудио книги через торрент


Вернуться к началу
 Профиль Отправить личное сообщение  
 
   Похожие торренты   Автор   Торрент   Размер 
В этой теме нет новых непрочитанных сообщений. Частная война / A Private War [Драма, военный, биография, 2018] BDRip, Mvo

salma3

0 | 0

1.46 ГБ

В этой теме нет новых непрочитанных сообщений. Частная война / A Private War [Драма, военный, биография, 2018] BDRip, Mvo [iTunes]

salma3

10 | 15

1.41 ГБ

В этой теме нет новых непрочитанных сообщений. Частная война / A Private War [биография, драма, военный, 2018] BDRemux 1080р, Mvo

salma3

0 | 1

27.1 ГБ

В этой теме нет новых непрочитанных сообщений. Частная война / A Private War [Драма, военный, биография, 2018] BDRip-AVC, Mvo [iTunes]

salma3

0 | 0

2.55 ГБ

В этой теме нет новых непрочитанных сообщений. Война Беннетта / Bennett's War [спорт, военный, 2019] TS, Mvo

K15

6 | 1

1.38 ГБ

В этой теме нет новых непрочитанных сообщений. Частная война / A Private War [драма, военный, биография, 2018] HDRip, Dvo

salma3

0 | 0

1.46 ГБ

В этой теме нет новых непрочитанных сообщений. Война на бобовом поле Милагро / The Milagro Beanfield War [драма, комедия, экранизация, 1988] BDRemux 1080p, Mvo

salma3

0 | 0

19.38 ГБ


Начать новую тему Ответить на тему  [ 1 сообщение ] 




Для Мосгорсуда, Роскомнадзора и рекламодателей:: rstracker[собака]yandex.ru
cron