Торрент файл
скачать торрент магнет ссылка Добавлен: 18 сен 2018, 11:53
Размер: 6.56 ГБ
Сидеров: 0
Личеров: 0
Статус: (salma3)
Автор

СообщениеДобавлено: 18 сен 2018, 11:53 

В сети
Супермодератор
Аватара пользователя
Дата регистрации:
15 фев 2012, 16:44
Возраст: 29
Спасибо: 7379 / 2147
Сообщения: 76045
Год выхода: 1987
Жанр: ужасы, триллер, детектив
Режиссер: Ламберто Бава

В ролях: Серена Гранди, Дария Николоди, Ванни Корбеллини, Дэвид Брэндон, Джордж Истмен, Трине Микельсен, Карл Синни, Лино Салемме, Сабрина Салерно, Капюсин

Описание: Фильм о безумце, который впадает в реку истерии, разрушения и террора, убивая моделей порнографического журнала «Pussycat» и развешивая фотографии их изуродованных тел у себя в комнате. Он является поклонником бывшей модели этого журнала, а теперь владелицы, Джои, из чьих фотографий он делает ужасные коллажи. Он посылает их в редакцию журнала. В дело вмешивается полиция, и, естественно, практически каждый персонаж картины становится подозреваемым…



Страна: Италия
Продолжительность: 01:33:48
Перевод: Любительский (одноголосый закадровый) диктор "Horror Club"

Файл
Качество: BDRip 720p
Видео: MPEG-4 AVC, 9571 kbps, 1280x692
Аудио 1: Russian; AC3; 48.0 KHz; 2ch; 192 Kbps | диктор "Horror Club"
Аудио 2: English; AAC; 48.0 KHz; 2ch; 248 Kbps | original
Субтитры: английские

General
Unique ID : 92134392200876394789778548543059799027 (0x455070408981D4F5A2BF0C681AEE2BF3)
Complete name : Le.foto.di.Gioia.1987.BDRip.720p.mkv
Format : Matroska
Format version : Version 4 / Version 2
File size : 6.56 GiB
Duration : 1 h 33 min
Overall bit rate : 10.0 Mb/s
Movie name : Le foto di Gioia 1987 720p BluRay AAC2.0 x264-KiD
Encoded date : UTC 2018-09-14 09:40:56
Writing application : mkvmerge v25.0.0 ('Prog Noir') 64-bit
Writing library : libebml v1.3.6 + libmatroska v1.4.9

Video
ID : 1
Format : AVC
Format/Info : Advanced Video Codec
Format profile : High@L4.1
Format settings : CABAC / 9 Ref Frames
Format settings, CABAC : Yes
Format settings, ReFrames : 9 frames
Codec ID : V_MPEG4/ISO/AVC
Duration : 1 h 33 min
Bit rate : 9 571 kb/s
Width : 1 280 pixels
Height : 692 pixels
Display aspect ratio : 1.85:1
Frame rate mode : Constant
Frame rate : 23.976 (24000/1001) FPS
Color space : YUV
Chroma subsampling : 4:2:0
Bit depth : 8 bits
Scan type : Progressive
Bits/(Pixel*Frame) : 0.451
Stream size : 6.27 GiB (96%)
Title : Le.foto.di.Gioia.1987.720p.BluRay.AAC2.0.x264-KiD
Writing library : x264 core 152 r2851 ba24899
Encoding settings : cabac=1 / ref=9 / deblock=1:-3:-3 / analyse=0x3:0x133 / me=umh / subme=11 / psy=1 / psy_rd=1.00:0.00 / mixed_ref=1 / me_range=48 / chroma_me=1 / trellis=2 / 8x8dct=1 / cqm=0 / deadzone=21,11 / fast_pskip=0 / chroma_qp_offset=-2 / threads=12 / lookahead_threads=3 / sliced_threads=0 / nr=0 / decimate=0 / interlaced=0 / bluray_compat=0 / constrained_intra=0 / bframes=16 / b_pyramid=2 / b_adapt=2 / b_bias=0 / direct=3 / weightb=1 / open_gop=0 / weightp=2 / keyint=250 / keyint_min=23 / scenecut=40 / intra_refresh=0 / rc=crf / mbtree=0 / crf=17.0 / qcomp=0.70 / qpmin=0 / qpmax=69 / qpstep=4 / ip_ratio=1.25 / pb_ratio=1.15 / aq=2:0.75
Language : English
Default : Yes
Forced : No

Audio #1
ID : 2
Format : AC-3
Format/Info : Audio Coding 3
Codec ID : A_AC3
Duration : 1 h 33 min
Bit rate mode : Constant
Bit rate : 192 kb/s
Channel(s) : 2 channels
Channel positions : Front: L R
Sampling rate : 48.0 kHz
Frame rate : 31.250 FPS (1536 SPF)
Bit depth : 16 bits
Compression mode : Lossy
Stream size : 129 MiB (2%)
Title : VO Диктор "Horror Club"
Language : Russian
Default : Yes
Forced : No

Audio #2
ID : 3
Format : AAC
Format/Info : Advanced Audio Codec
Format profile : LC
Codec ID : A_AAC-2
Duration : 1 h 33 min
Bit rate : 248 kb/s
Channel(s) : 2 channels
Channel positions : Front: L R
Sampling rate : 48.0 kHz
Frame rate : 46.875 FPS (1024 SPF)
Compression mode : Lossy
Delay relative to video : 21 ms
Stream size : 166 MiB (2%)
Title : Original
Language : English
Default : No
Forced : No

Text
ID : 4
Format : UTF-8
Codec ID : S_TEXT/UTF8
Codec ID/Info : UTF-8 Plain Text
Duration : 1 h 29 min
Bit rate : 48 b/s
Count of elements : 1164
Stream size : 32.0 KiB (0%)
Title : English
Language : English
Default : No
Forced : No

Menu
00:00:00.000 : en:Chapter 01
00:06:18.378 : en:Chapter 02
00:12:40.843 : en:Chapter 03
00:17:05.399 : en:Chapter 04
00:22:42.778 : en:Chapter 05
00:27:56.591 : en:Chapter 06
00:30:59.941 : en:Chapter 07
00:36:21.554 : en:Chapter 08
00:44:03.015 : en:Chapter 10
00:52:36.319 : en:Chapter 11
00:58:51.277 : en:Chapter 12
01:08:33.359 : en:Chapter 13
01:16:23.453 : en:Chapter 14
01:21:42.731 : en:Chapter 15
01:32:08.189 : en:Chapter 16
01:33:47.580 : en:Chapter 17

ЦитатаКто-то писал:
Синхронизация звука - GoldDust


_________________
Проголосуй за трекер Открытый торрент трекер - RUS-MEDIA.ORG

Проголосуй Открытый торрент трекер - RUS-MEDIA.ORG


Вернуться к началу
 Профиль Отправить личное сообщение  
 
   Похожие торренты   Автор   Торрент   Размер 
В этой теме нет новых непрочитанных сообщений. Фотография Джойи / Бред / Le foto di Gioia / Delirium [ужасы, триллер, детектив, 1987] BDRip, Avo

salma3

32 | 7

1.45 ГБ

В этой теме нет новых непрочитанных сообщений. Фотография Джойи / Бред / Le foto di Gioia / Delirium [ужасы, триллер, детектив, 1987] BDRemux 1080р, Avo

salma3

13 | 7

19.31 ГБ

В этой теме нет новых непрочитанных сообщений. Фотография Джойи / Le foto di Gioia [ужасы, триллер, детектив, 1987] BDRip-AVC, Avo

salma3

29 | 16

746.27 МБ

В этой теме нет новых непрочитанных сообщений. Истерия / Delirium [Ужасы, триллер, 2018] BDRip 720p, Dub [Лицензия]

salma3

170 | 151

5.89 ГБ

В этой теме нет новых непрочитанных сообщений. Ужас в опере / Opera [ужасы, триллер, детектив, 1987] BDRip 720p, Dvo

salma3

29 | 5

5.99 ГБ

В этой теме нет новых непрочитанных сообщений. Истерия / Delirium [Ужасы, триллер, 2018] BDRip-AVC, Dub [Лицензия]

salma3

115 | 60

2.18 ГБ

В этой теме нет новых непрочитанных сообщений. Истерия / Delirium [Ужасы, триллер, 2018] BDRip, Dub [Лицензия]

salma3

477 | 151

1.46 ГБ


Начать новую тему Ответить на тему  [ 1 сообщение ] 




Для Мосгорсуда, Роскомнадзора и рекламодателей:: mosgorsud-torrent[собачка]yandex.ru
cron