COVID-19 - Последняя информация о коронавирусе на сайте Минздрава




Торрент файл
скачать торрент магнет ссылка Добавлен: 16 сен 2018, 14:17
Размер: 6.49 ГБ
Сидеров: 0
Личеров: 0
Статус: (salma3)
Автор

СообщениеДобавлено: 16 сен 2018, 14:17 

Не в сети
Супермодератор
Аватара пользователя
Дата регистрации:
15 фев 2012, 16:44
Возраст: 31
Спасибо: 8280 / 2148
Сообщения: 96711
Год выпуска: 2017
Жанр: драма
Режиссер: Шон Бэйкер

В ролях: Уиллем Дефо, Бруклин Принс, Калеб Лэндри Джонс, Мэйкон Блэр, Карен Карагулян, Сэнди Кэйн

О фильме: Невоспитанная, но очаровательная 6-летняя Муни живет в мотеле во Флориде. Пока ее непутевая мамаша пытается свести концы с концами разными, зачастую незаконными, способами, девочка целыми днями предоставлена самой себе. Вместе с соседскими детьми Муни болтается по окрестностям без присмотра и определенной цели, хулиганя и грубя окружающим. Однако менеджер мотеля терпеливо и с симпатией относится к своим постояльцам.



Страна: США
Продолжительность: 01:51:36
Перевод: Профессиональный (многоголосый, закадровый) Мельница

Файл
Качество: BDRip 720p
Формат: Matroska
Видео: 1280x536 at 23.976 fps, x264, ~7300 kbps avg
Аудио#1: Russian: 48 kHz, AC3, 2/0 (L,R) ch, ~224 kbps avg |Многоголосый закадровый, Мельница|
Аудио#2: English: 48 KHz, AC3, 3/2 (L,C,R,l,r) + LFE ch, ~640 kbps avg
Субтитры: Russian (Focs), English (SDH)

***Релиз: whip9З.

***Внимание! В субтитрах от Focs присутствует ненормативная лексика!

В начальном варианте сценария предполагалось, что с отелем Бобби в исполнении Уиллема Дефо будет помогать брат. По мере съёмок, однако, стало понятно, что больше к месту будут отношения Бобби не с братом, а с ребёнком. Так было принято решение поменять в сценарии брата на сына. На эту роль утвердили Калеба Лэндри Джонса, и уже через пару недель начались съёмки сцен с его участием.
Перед началом работы в фильме Уиллем Дефо провёл неделю в тех местах, где планировались съёмки, чтобы лучше узнать жизнь своего героя и научиться говорить с нужным акцентом.
«Проект „Флорида“ было рабочим названием Диснейуорлда (Disney World) на начальных стадиях его строительства.
Съемки проводились в реальных мотелях. Их на время съёмок не закрывали, поэтому в некоторых сценах на экране присутствуют реальные постояльцы и обслуживающий персонал.
[*]Практически весь фильм снят на 35-миллиметровую плёнку. Исключение было сделано лишь в финальной сцене, которая снята на iPhone во Всемирном центре отдыха Уолта Диснея без ведома администрации.
Общее
Уникальный идентификатор : 175615557990365815647946655637689339490 (0x841E5380C1388C9840E85D403B340E62)
Полное имя : The.Florida.Project.2017.720p.BluRay.DD2.0.x264.-whip93.mkv
Формат : Matroska
Версия формата : Version 4 / Version 2
Размер файла : 6,49 Гбайт
Продолжительность : 1 ч. 51 м.
Общий поток : 8325 Кбит/сек
Название фильма : Проект "Флорида" | The Florida Project (2017) - Release by whip93
Дата кодирования : UTC 2018-09-16 03:34:09
Программа кодирования : mkvmerge v26.0.0 ('In The Game') 64-bit
Библиотека кодирования : libebml v1.3.6 + libmatroska v1.4.9

Видео
Идентификатор : 1
Формат : AVC
Формат/Информация : Advanced Video Codec
Профиль формата : High@L4.1
Параметр CABAC формата : Да
Параметр ReFrames формата : 12 кадров
Идентификатор кодека : V_MPEG4/ISO/AVC
Продолжительность : 1 ч. 51 м.
Битрейт : 7295 Кбит/сек
Ширина : 1280 пикселей
Высота : 536 пикселей
Соотношение сторон : 2,40:1
Режим частоты кадров : Постоянный
Частота кадров : 23,976 кадра/сек
Цветовое пространство : YUV
Субдискретизация насыщенности : 4:2:0
Битовая глубина : 8 бит
Тип развёртки : Прогрессивная
Бит/(Пиксели*Кадры) : 0.444
Размер потока : 5,69 Гбайт (88%)
Заголовок : Encoded by whip93
Библиотека кодирования : x264 core 155 r2901 7d0ff22
Настройки программы : cabac=1 / ref=12 / deblock=1:-3:-3 / analyse=0x3:0x133 / me=umh / subme=11 / psy=1 / psy_rd=1.00:0.08 / mixed_ref=0 / me_range=64 / chroma_me=1 / trellis=2 / 8x8dct=1 / cqm=0 / deadzone=21,11 / fast_pskip=0 / chroma_qp_offset=-2 / threads=12 / lookahead_threads=3 / sliced_threads=0 / nr=0 / decimate=1 / interlaced=0 / bluray_compat=0 / constrained_intra=0 / bframes=13 / b_pyramid=2 / b_adapt=2 / b_bias=0 / direct=1 / weightb=1 / open_gop=0 / weightp=2 / keyint=240 / keyint_min=23 / scenecut=40 / intra_refresh=0 / rc_lookahead=90 / rc=crf / mbtree=0 / crf=16.0 / qcomp=0.72 / qpmin=0 / qpmax=69 / qpstep=4 / vbv_maxrate=50000 / vbv_bufsize=62500 / crf_max=0.0 / nal_hrd=none / filler=0 / ip_ratio=1.40 / pb_ratio=1.30 / aq=3:0.80
Язык : English
Default : Да
Forced : Нет
Основные цвета : BT.709
Характеристики трансфера : BT.709
Коэффициенты матрицы : BT.709

Аудио #1
Идентификатор : 2
Формат : AC-3
Формат/Информация : Audio Coding 3
Расширение режима : CM (complete main)
Параметр Endianness формата : Big
Идентификатор кодека : A_AC3
Продолжительность : 1 ч. 51 м.
Вид битрейта : Постоянный
Битрейт : 224 Кбит/сек
Каналы : 2 канала
Расположение каналов : Front: L R
Частота : 48,0 КГц
Битовая глубина : 16 бит
Метод сжатия : С потерями
Размер потока : 179 Мбайт (3%)
Заголовок : MVO (Мельница)
Язык : Russian
Default : Да
Forced : Нет

Аудио #2
Идентификатор : 3
Формат : AC-3
Формат/Информация : Audio Coding 3
Расширение режима : CM (complete main)
Параметр Endianness формата : Big
Идентификатор кодека : A_AC3
Продолжительность : 1 ч. 51 м.
Вид битрейта : Постоянный
Битрейт : 640 Кбит/сек
Каналы : 6 каналов
Расположение каналов : Front: L C R, Side: L R, LFE
Частота : 48,0 КГц
Битовая глубина : 16 бит
Метод сжатия : С потерями
Размер потока : 511 Мбайт (8%)
Заголовок : Original
Язык : English
Default : Нет
Forced : Нет

Текст #1
Идентификатор : 4
Формат : UTF-8
Идентификатор кодека : S_TEXT/UTF8
Идентификатор кодека/Информация : UTF-8 Plain Text
Заголовок : Focs
Язык : Russian
Default : Нет
Forced : Нет

Текст #2
Идентификатор : 5
Формат : UTF-8
Идентификатор кодека : S_TEXT/UTF8
Идентификатор кодека/Информация : UTF-8 Plain Text
Заголовок : Original (SDH)
Язык : English
Default : Нет
Forced : Нет

Меню
00:00:00.000 : en:Chapter 01
00:07:16.686 : en:Chapter 02
00:13:02.656 : en:Chapter 03
00:21:22.531 : en:Chapter 04
00:25:16.389 : en:Chapter 05
00:32:04.005 : en:Chapter 06
00:38:48.868 : en:Chapter 07
00:44:28.207 : en:Chapter 08
00:51:27.542 : en:Chapter 09
00:56:41.648 : en:Chapter 10
01:04:28.698 : en:Chapter 11
01:11:19.108 : en:Chapter 12
01:19:07.451 : en:Chapter 13
01:28:33.224 : en:Chapter 14
01:36:10.931 : en:Chapter 15
01:44:52.411 : en:Chapter 16


_________________
Проголосуй за трекер Открытый торрент трекер - RUS-MEDIA.ORG

Проголосуй Открытый торрент трекер - RUS-MEDIA.ORG


Скачать книги и аудио книги через торрент


Вернуться к началу
 Профиль Отправить личное сообщение  
 
   Похожие торренты   Автор   Торрент   Размер 
В этой теме нет новых непрочитанных сообщений. Проект Флорида / The Florida Project [драма, 2017] BDRip, Mvo

salma3

0 | 0

1.46 ГБ

В этой теме нет новых непрочитанных сообщений. Проект «Итака» / Project Ithaca [Фантастика, триллер, 2019] BDRip 720p, Dub [iTunes]

salma3

120 | 24

4.11 ГБ

В этой теме нет новых непрочитанных сообщений. Проект «Гутенберг» / Wu shuang / Project Gutenberg [Боевик, криминал, детектив, 2018] BDRip 720p, Dvo

salma3

0 | 0

8.57 ГБ

В этой теме нет новых непрочитанных сообщений. Проект засекречен / Проект "Синяя книга" / Project Blue Book [S01] [детектив, история, 2019] WEB-DLRip, Mvo [Jaskier]

salma3

0 | 0

5.23 ГБ

В этой теме нет новых непрочитанных сообщений. Проект засекречен / Проект "Синяя книга" / Project Blue Book [S01] [детектив, история, 2019] WEB-DL 1080p, Mvo [Jaskier]

salma3

0 | 0

18.92 ГБ

В этой теме нет новых непрочитанных сообщений. Мой научный проект / My Science Project [фантастика, боевик, комедия, 1985] BDRip-AVC, Mvo

salma3

0 | 0

2.18 ГБ

В этой теме нет новых непрочитанных сообщений. Проект «Итака» / Project Ithaca [Фантастика, триллер, 2019] BDRip, Dub [iTunes]

salma3

708 | 70

1.46 ГБ


Начать новую тему Ответить на тему  [ 1 сообщение ] 




Для Мосгорсуда, Роскомнадзора и рекламодателей:: rstracker[собака]yandex.ru
cron