Торрент файл
скачать торрент магнет ссылка Добавлен: 15 сен 2018, 20:47
Размер: 6.69 ГБ
Сидеров: 0
Личеров: 0
Статус: (salma3)
Автор

СообщениеДобавлено: 15 сен 2018, 20:47 

Не в сети
Супермодератор
Аватара пользователя
Дата регистрации:
15 фев 2012, 16:44
Возраст: 29
Спасибо: 7379 / 2147
Сообщения: 76148
Год выпуска: 2015
Жанр: триллер, драма, криминал
Режиссер: Стефано Соллима

В ролях: Пьерфранческо Фавино, Грета Скарано, Жан-Юг Англад, Элио Джермано, Алессандро Борги, Джулия Гориетти, Лидия Витале, Клаудио Амендола, Юлия Коломиец, Адамо Дионизи

О фильме: Субура - известный в античности, как опасный, шумный, сырой и грязный, с множеством торговцев и проституток, район Древнего Рима. И спустя несколько тысячелетий среди великолепного городского пейзажа Рима разыгрываются отвратительные сцены из спектакля под названием жизнь. Гангстер по прозвищу Самурай хочет превратить пригород Рима в новый Лас-Вегас. Все местные криминальные авторитеты согласились работать для достижения общей цели. Но этот мир продлится недолго...



Страна: Италия, Франция
Продолжительность: 02:14:57
Перевод: Профессиональный (многоголосый, закадровый), Авторский (одноголосый, закадровый)

Файл
Качество: BDRip 720p
Формат: Matroska
Видео: 1280x546 at 24.000 fps, x264, ~5500 kbps avg
Аудио#1: Russian: 48 kHz, AC3, 2/0 (L,R) ch, ~192 kbps avg |Многоголосый закадровый, кинокомпания Эй Би Видео по заказу Первого канала|
Аудио#2: Russian: 48 kHz, AC3, 3/2 (L,C,R,l,r) + LFE ch, ~640 kbps avg |Авторский, А.Матвеев|
Аудио#3: Italian: 48 kHz, AC3, 3/2 (L,C,R,l,r) + LFE ch, ~640 kbps avg
Субтитры: Russian, Italian, English, French

***Сохранены оригинальные главы как на Blu-ray.
***Релиз: ylnian.
***Внимание! В переводе А.Матвеева присутствует ненормативная лексика!
Общее
Уникальный идентификатор : 207668618932023020980207074026260448497 (0x9C3B856B77A81515D279728997C6C4F1)
Полное имя : Suburra.2015.BDRip.720p-ylnian.mkv
Формат : Matroska
Версия формата : Version 4 / Version 2
Размер файла : 6,69 Гбайт
Продолжительность : 2 ч. 14 м.
Общий поток : 7100 Кбит/сек
Название фильма : Suburra.2015.BDRip.720p-ylnian
Дата кодирования : UTC 2018-09-15 11:26:48
Программа кодирования : mkvmerge v26.0.0 ('In The Game') 64-bit
Библиотека кодирования : libebml v1.3.6 + libmatroska v1.4.9

Видео
Идентификатор : 1
Формат : AVC
Формат/Информация : Advanced Video Codec
Профиль формата : High@L4.1
Параметр CABAC формата : Да
Параметр ReFrames формата : 12 кадров
Идентификатор кодека : V_MPEG4/ISO/AVC
Продолжительность : 2 ч. 14 м.
Битрейт : 5487 Кбит/сек
Ширина : 1280 пикселей
Высота : 546 пикселей
Соотношение сторон : 2,35:1
Режим частоты кадров : Постоянный
Частота кадров : 24,000 кадра/сек
Цветовое пространство : YUV
Субдискретизация насыщенности : 4:2:0
Битовая глубина : 8 бит
Тип развёртки : Прогрессивная
Бит/(Пиксели*Кадры) : 0.327
Размер потока : 5,17 Гбайт (77%)
Заголовок : Suburra.2015.MULTi.720p.BluRay.DTS.x264-FORZA
Библиотека кодирования : x264 core 142 r2431+42 c69a006 tMod [8-bit@all X86]
Настройки программы : cabac=1 / ref=12 / deblock=1:-3:-3 / analyse=0x3:0x133 / me=umh / subme=11 / psy=1 / fade_compensate=0.00 / psy_rd=1.10:0.00 / mixed_ref=1 / me_range=64 / chroma_me=1 / trellis=2 / 8x8dct=1 / cqm=0 / deadzone=21,11 / fast_pskip=0 / chroma_qp_offset=0 / threads=48 / lookahead_threads=3 / sliced_threads=0 / nr=0 / decimate=0 / interlaced=0 / bluray_compat=0 / constrained_intra=0 / fgo=0 / bframes=10 / b_pyramid=2 / b_adapt=2 / b_bias=0 / direct=3 / weightb=1 / open_gop=0 / weightp=2 / keyint=240 / keyint_min=24 / scenecut=40 / intra_refresh=0 / rc_lookahead=120 / rc=crf / mbtree=0 / crf=17.0000 / qcomp=0.65 / qpmin=0:0:0 / qpmax=69:69:69 / qpstep=4 / vbv_maxrate=50000 / vbv_bufsize=50000 / crf_max=0.0 / nal_hrd=none / filler=0 / ip_ratio=1.30 / pb_ratio=1.20 / aq=3:0.75 / aq-sensitivity=10.00 / aq-factor=1.00:1.00:1.00 / aq2=0 / aq3=0 / zones=2291,2369,crf=15/3653,3739,crf=15/7160,7220,crf=15/9010,9100,crf=15/12279,12358,crf=15/19363,19479,crf=15/47729,47837,crf=15/65850,65968,crf=15/87693,87788,crf=15/101952,102065,crf=15/102946,103037,crf=15/105990,106073,crf=15/107816,107939,crf=15/124830,124940,crf=15/128412,128561,crf=15/129810,129919,crf=15/133475,133601,crf=15/141383,141490,crf=15/144889,144986,crf=15/155814,156570,crf=15/157661,157784,crf=15/160527,160640,crf=15/162873,162966,crf=15/178469,178744,crf=15/180500,180592,crf=15/180990,181098,crf=15/181992,182101,crf=15/182339,182443,crf=15
Язык : Italian
Default : Да
Forced : Да
Основные цвета : BT.709
Характеристики трансфера : BT.709
Коэффициенты матрицы : BT.709

Аудио #1
Идентификатор : 2
Формат : AC-3
Формат/Информация : Audio Coding 3
Расширение режима : CM (complete main)
Параметр Endianness формата : Big
Идентификатор кодека : A_AC3
Продолжительность : 2 ч. 14 м.
Вид битрейта : Постоянный
Битрейт : 192 Кбит/сек
Каналы : 2 канала
Расположение каналов : Front: L R
Частота : 48,0 КГц
Битовая глубина : 16 бит
Метод сжатия : С потерями
Размер потока : 185 Мбайт (3%)
Заголовок : MVO
Язык : Russian
Default : Да
Forced : Да

Аудио #2
Идентификатор : 3
Формат : AC-3
Формат/Информация : Audio Coding 3
Расширение режима : CM (complete main)
Параметр Endianness формата : Big
Идентификатор кодека : A_AC3
Продолжительность : 2 ч. 14 м.
Вид битрейта : Постоянный
Битрейт : 640 Кбит/сек
Каналы : 6 каналов
Расположение каналов : Front: L C R, Side: L R, LFE
Частота : 48,0 КГц
Битовая глубина : 16 бит
Метод сжатия : С потерями
Размер потока : 618 Мбайт (9%)
Заголовок : VO
Язык : Russian
Default : Нет
Forced : Нет

Аудио #3
Идентификатор : 4
Формат : AC-3
Формат/Информация : Audio Coding 3
Расширение режима : CM (complete main)
Параметр Endianness формата : Big
Идентификатор кодека : A_AC3
Продолжительность : 2 ч. 14 м.
Вид битрейта : Постоянный
Битрейт : 640 Кбит/сек
Каналы : 6 каналов
Расположение каналов : Front: L C R, Side: L R, LFE
Частота : 48,0 КГц
Битовая глубина : 16 бит
Метод сжатия : С потерями
Размер потока : 618 Мбайт (9%)
Язык : Italian
Default : Нет
Forced : Нет

Текст #1
Идентификатор : 5
Формат : UTF-8
Идентификатор кодека : S_TEXT/UTF8
Идентификатор кодека/Информация : UTF-8 Plain Text
Язык : Russian
Default : Нет
Forced : Нет

Текст #2
Идентификатор : 6
Формат : UTF-8
Идентификатор кодека : S_TEXT/UTF8
Идентификатор кодека/Информация : UTF-8 Plain Text
Язык : Italian
Default : Нет
Forced : Нет

Текст #3
Идентификатор : 7
Формат : UTF-8
Идентификатор кодека : S_TEXT/UTF8
Идентификатор кодека/Информация : UTF-8 Plain Text
Язык : English
Default : Нет
Forced : Нет

Текст #4
Идентификатор : 8
Формат : UTF-8
Идентификатор кодека : S_TEXT/UTF8
Идентификатор кодека/Информация : UTF-8 Plain Text
Язык : French
Default : Нет
Forced : Нет

Меню
00:00:00.000 : en:Chapter 1
00:02:18.750 : en:Chapter 2
00:13:26.291 : en:Chapter 3
00:32:56.458 : en:Chapter 4
00:48:02.666 : en:Chapter 5
01:09:46.916 : en:Chapter 6
01:16:12.166 : en:Chapter 7
01:29:59.000 : en:Chapter 8
01:40:24.958 : en:Chapter 9
01:45:53.666 : en:Chapter 10
01:59:10.333 : en:Chapter 11
02:07:59.791 : en:Chapter 12


_________________
Проголосуй за трекер Открытый торрент трекер - RUS-MEDIA.ORG

Проголосуй Открытый торрент трекер - RUS-MEDIA.ORG


Вернуться к началу
 Профиль Отправить личное сообщение  
 
   Похожие торренты   Автор   Торрент   Размер 
В этой теме нет новых непрочитанных сообщений. Субура / Suburra [триллер, драма, криминал, 2015] BDRip, Mvo

salma3

0 | 0

1.46 ГБ

В этой теме нет новых непрочитанных сообщений. Субурра / Suburra (Стефано Соллима) [Криминал, драма, 2015] WEBRip, dvo

Dracon

3404 | 689

2.05 ГБ

В этой теме нет новых непрочитанных сообщений. Cубурра / Suburra (Стефано Соллима) [Криминал, драма, 2015] WEBRip 1080p, dvo

Dracon

1261 | 109

2.78 ГБ

В этой теме нет новых непрочитанных сообщений. Легенда / Legend [Триллер, драма, криминал, 2015] BDRip 720p, dub [iTunes]

Dracon

11064 | 1602

4.72 ГБ

В этой теме нет новых непрочитанных сообщений. Сделано во Франции / Made in France [триллер, драма, криминал, 2015] BDRip 720p, Mvo

salma3

43 | 3

3.86 ГБ

В этой теме нет новых непрочитанных сообщений. Преступная деятельность / Criminal Activities [Триллер, драма, криминал, 2015] BDRip 720p [IDEAFILM]

Dracon

111 | 6

4.62 ГБ

В этой теме нет новых непрочитанных сообщений. Аддеролловые дневники / The Adderall Diaries [триллер, драма, криминал, 2015] BDRip 720p, Dub [чистый звук]

salma3

92 | 14

3.57 ГБ


Начать новую тему Ответить на тему  [ 1 сообщение ] 




Для Мосгорсуда, Роскомнадзора и рекламодателей:: mosgorsud-torrent[собачка]yandex.ru
cron