Торрент файл
скачать торрент магнет ссылка Добавлен: 09 сен 2018, 15:11
Размер: 3.38 ГБ
Сидеров: 34
Личеров: 10
Статус: (salma3)
Автор

СообщениеДобавлено: 09 сен 2018, 15:11 

В сети
Супермодератор
Аватара пользователя
Дата регистрации:
15 фев 2012, 16:44
Возраст: 29
Спасибо: 7379 / 2147
Сообщения: 76045
Год выхода: 1990
Жанр: ужасы, детектив, фантастика
Режиссер: Адам Саймон

В ролях: Билл Пуллман, Билл Пэкстон, Бад Корт, Николас Прайор, Патриша Шарбонно, Джордж Кеннеди, Брайан Брофи, Дэвид Синайко, Ли Аренберг, Энди Вуд

О фильме: Молодой талантливый нейрохирург Рекс Мартин соглашается на уговоры своего приятеля Джима Рестона и проводит не совсем законную экспериментальную операцию на мозге ученого-математика Холси, пациента одной из закрытых психиатрических лечебниц. Операция эта должна либо подтвердить, либо опровергнуть незавершенные, пока еще лишь теоретические разработки в области психических заболеваний (в данном случае — паранойи), которыми занимался доктор Мартин. Проблема в том, что Джима Рестона интересовала формула, которую знал только математик Холси, и возможность «извлечь» ее из мозга больного ученого, а хирург Рекс Мартин пустился в исследования галлюцинаций, маний, фобий, то есть всего, чем он профессионально занимался.



Страна: США
Продолжительность: 01:24:15
Перевод: Авторский (одноголосый закадровый) Андрей Гаврилов
Оригинальная аудиодорожка: английский

Файл
Качество: BDRip 720p
Видео: MPEG-4 / 5027 kbps / 1280x688 / 23.976 fps / High Profile 4.1
Аудио 1: Russian / AC-3 / 2.0 / 48 kHz / 192 kbps / 16-bit
Аудио 2: English / FLAC / 2.0 / 48 kHz / 529 kbps / 16-bit

General
Unique ID : 21247993903843663122642152771161468836 (0xFFC36FB4828662A0114658C21A4AFA4)
Complete name : Brain.Dead.1990.720p.BluRay.x264.mkv
Format : Matroska
Format version : Version 4 / Version 2
File size : 3.38 GiB
Duration : 1 h 24 min
Overall bit rate mode : Variable
Overall bit rate : 5 746 kb/s
Encoded date : UTC 2018-09-09 09:15:48
Writing application : mkvmerge v26.0.0 ('In The Game') 32-bit
Writing library : libebml v1.3.6 + libmatroska v1.4.9

Video
ID : 1
Format : AVC
Format/Info : Advanced Video Codec
Format profile : High@L4.1
Format settings, CABAC : Yes
Format settings, RefFrames : 5 frames
Codec ID : V_MPEG4/ISO/AVC
Duration : 1 h 24 min
Bit rate : 5 027 kb/s
Width : 1 280 pixels
Height : 688 pixels
Display aspect ratio : 1.85:1
Frame rate mode : Constant
Frame rate : 23.976 (24000/1001) FPS
Color space : YUV
Chroma subsampling : 4:2:0
Bit depth : 8 bits
Scan type : Progressive
Bits/(Pixel*Frame) : 0.238
Stream size : 2.96 GiB (87%)
Writing library : x264 core 155 r2901 7d0ff22
Encoding settings : cabac=1 / ref=5 / deblock=1:-3:-3 / analyse=0x3:0x113 / me=umh / subme=8 / psy=1 / psy_rd=1.00:0.25 / mixed_ref=1 / me_range=24 / chroma_me=1 / trellis=1 / 8x8dct=1 / cqm=0 / deadzone=21,11 / fast_pskip=1 / chroma_qp_offset=-4 / threads=21 / lookahead_threads=3 / sliced_threads=0 / nr=0 / decimate=1 / interlaced=0 / bluray_compat=0 / constrained_intra=0 / bframes=3 / b_pyramid=2 / b_adapt=1 / b_bias=0 / direct=3 / weightb=1 / open_gop=0 / weightp=2 / keyint=240 / keyint_min=24 / scenecut=40 / intra_refresh=0 / rc_lookahead=50 / rc=2pass / mbtree=1 / bitrate=5027 / ratetol=1.0 / qcomp=0.60 / qpmin=0 / qpmax=69 / qpstep=4 / cplxblur=20.0 / qblur=0.5 / ip_ratio=1.40 / aq=1:0.75
Default : Yes
Forced : No

Audio #1
ID : 2
Format : AC-3
Format/Info : Audio Coding 3
Format settings, Endianness : Big
Codec ID : A_AC3
Duration : 1 h 24 min
Bit rate mode : Constant
Bit rate : 192 kb/s
Channel(s) : 2 channels
Channel positions : Front: L R
Sampling rate : 48.0 kHz
Frame rate : 31.250 FPS (1536 SPF)
Bit depth : 16 bits
Compression mode : Lossy
Stream size : 116 MiB (3%)
Language : Russian
Service kind : Complete Main
Default : Yes
Forced : No

Audio #2
ID : 3
Format : FLAC
Format/Info : Free Lossless Audio Codec
Codec ID : A_FLAC
Duration : 1 h 24 min
Bit rate mode : Variable
Bit rate : 529 kb/s
Channel(s) : 2 channels
Channel positions : Front: L R
Sampling rate : 48.0 kHz
Frame rate : 11.719 FPS (4096 SPF)
Bit depth : 16 bits
Stream size : 319 MiB (9%)
Writing library : libFLAC 1.2.1 (UTC 2007-09-17)
Language : English
Default : No
Forced : No

Menu
00:00:00.000 : en:00:00:00.000
00:05:10.101 : en:00:05:10.101
00:09:01.291 : en:00:09:01.291
00:13:37.817 : en:00:13:37.817
00:17:51.445 : en:00:17:51.445
00:25:07.423 : en:00:25:07.423
00:33:56.785 : en:00:33:56.785
00:41:43.000 : en:00:41:43.000
00:49:13.450 : en:00:49:13.450
00:55:23.737 : en:00:55:23.737
01:03:53.288 : en:01:03:53.288
01:11:47.762 : en:01:11:47.762


_________________
Проголосуй за трекер Открытый торрент трекер - RUS-MEDIA.ORG

Проголосуй Открытый торрент трекер - RUS-MEDIA.ORG


Вернуться к началу
 Профиль Отправить личное сообщение  
 
   Похожие торренты   Автор   Торрент   Размер 
В этой теме нет новых непрочитанных сообщений. Мертвый мозг / Braindead [ужасы, детектив, фанастика, 1990] BDRemux 1080р, Dvo

salma3

0 | 0

21.34 ГБ

В этой теме нет новых непрочитанных сообщений. Мозг Донована / Donovan's Brain [ужасы, фантастика, 1953] BDRip 720p, Avo

salma3

17 | 3

3.76 ГБ

В этой теме нет новых непрочитанных сообщений. Женский мозг / The Female Brain [Комедия, 2017] BDRip, Mvo

salma3

0 | 0

1.46 ГБ

В этой теме нет новых непрочитанных сообщений. Женский мозг / The Female Brain [Комедия, 2017] WEB-DL 1080p, Mvo

salma3

0 | 0

3.69 ГБ

В этой теме нет новых непрочитанных сообщений. Твин Пикс / Twin Peaks [01х01-04 из 8] (Дэвид Линч, Лесли Линка Глаттер, Калеб Дешанель) [1990, Детектив, Драма, Криминал, Мистика, Триллер, Ужасы, Фантастика, BDRip 720p | AlexFilm]

Nickolas3435

30 | 11

16.82 ГБ

В этой теме нет новых непрочитанных сообщений. Дважды мертвый / Twice Dead [ужасы, триллер, 1988] DVDRip, Avo

salma3

0 | 0

1.46 ГБ

В этой теме нет новых непрочитанных сообщений. Страж / The Guardian [ужасы, триллер, драма, детектив, 1990] BDRip 720p, Mvo+Avo+Sub

salma3

54 | 7

4.31 ГБ


Начать новую тему Ответить на тему  [ 1 сообщение ] 




Для Мосгорсуда, Роскомнадзора и рекламодателей:: mosgorsud-torrent[собачка]yandex.ru
cron