COVID-19 - Последняя информация о коронавирусе на сайте Минздрава




Торрент файл
скачать торрент магнет ссылка Добавлен: 01 сен 2018, 11:34
Размер: 12.15 ГБ
Сидеров: 0
Личеров: 1
Статус: (salma3)
Автор

СообщениеДобавлено: 01 сен 2018, 11:34 

Не в сети
Супермодератор
Аватара пользователя
Дата регистрации:
15 фев 2012, 16:44
Возраст: 31
Спасибо: 8273 / 2148
Сообщения: 96529
Год выпуска: 1981
Выпущено: Великобритания, Handmade Films Ltd
Жанр: Приключения, фантастика, семейный
Режиссер: Терри Гиллиам

В ролях: Джон Клиз, Шон Коннери, Шелли Дювалл, Кэтрин Хелмонд, Иэн Холм, Майкл Пэлин, Ральф Ричардсон, Питер Вон, Дэвид Уорнер, Дэвид Раппапорт

О фильме: Однажды среди ночи в спальне маленького Кэвина открывается черная дверь, и оттуда вываливается шестеро карликов самого бандитского вида, чтобы увлечь его в путешествие в пространстве и времени. Этой воровской ораве, возглавляемой забавным авантюристом Рэндлом, удалось выкрасть у чрезвычайно занятого Высшего Существа волшебную карту черных дыр.

Продолжительность: 01:55:55
Перевод: Профессиональный многоголосый, профессиональный двухголосый, авторский
Субтитры: Русские, английские
Навигация по главам: Есть

Файл
Качество: BDRip 720p
Видео: MPEG-4 AVC, 12871 Кбит/сек, 1280x700, 23,976 кадра/сек
Аудио #1: AC3, 6 ch, 384 Кбит/сек | Русский, профессиональный (многоголосый закадровый) R5
Аудио #2: AC3, 2 ch, 192 Кбит/сек | Русский, профессиональный (многоголосый закадровый) Позитив-Мультимедиа
Аудио #3: AC3, 2 ch, 448 Кбит/сек | Русский, профессиональный (двухголосый закадровый)
Аудио #4: AC3, 6 ch, 448 Кбит/сек | Русский, авторский (одноголосый закадровый) Сергей Визгунов
Аудио #5: AC3, 2 ch, 224 Кбит/сек | Русский, авторский (одноголосый закадровый) Юрий Толбин
Аудио #6: AC3, 6 ch, 448 Кбит/сек | Английский, оригинал



x264 [info]: frame I:967 Avg QP:17.68 size:173073
x264 [info]: frame P:34228 Avg QP:19.91 size:102684
x264 [info]: frame B:131567 Avg QP:22.12 size: 57014
-----------------------------------------------------
Общее
Уникальный идентификатор : 228850851713570023357542362580152585142 (0xAC2B1220B1A0F47D953A871572498BB6)
Полное имя : Бандиты.во.времени.1981.REMASTERED.BDRip.720p.KORSAR.mkv
Формат : Matroska
Версия формата : Version 2
Размер файла : 12,2 Гбайт
Продолжительность : 1 ч. 55 м.
Общий поток : 15,0 Мбит/сек
Дата кодирования : UTC 2018-08-30 12:39:53
Программа кодирования : mkvmerge v5.8.0 ('No Sleep / Pillow') built on Sep 2 2012 15:37:04
Библиотека кодирования : libebml v1.2.3 + libmatroska v1.3.0

Видео
Идентификатор : 1
Формат : AVC
Формат/Информация : Advanced Video Codec
Профиль формата : High@L4.1
Настройки формата : CABAC / 9 Ref Frames
Параметр CABAC формата : Да
Параметр RefFrames формата : 9 кадров
Идентификатор кодека : V_MPEG4/ISO/AVC
Продолжительность : 1 ч. 55 м.
Битрейт : 12,9 Мбит/сек
Ширина : 1280 пикселей
Высота : 700 пикселей
Соотношение сторон : 1,85:1
Режим частоты кадров : Постоянный
Частота кадров : 23,976 (24000/1001) кадра/сек
Цветовое пространство : YUV
Субдискретизация насыщенности : 4:2:0
Битовая глубина : 8 бит
Тип развёртки : Прогрессивная
Бит/(Пиксели*Кадры) : 0.599
Размер потока : 10,2 Гбайт (84%)
Заголовок : RIP | MZMA
Библиотека кодирования : x264 core 152 r2851kMod ba24899
Настройки программы : cabac=1 / ref=9 / deblock=1:-2:-2 / analyse=0x3:0x113 / me=umh / subme=11 / psy=1 / fade_compensate=0.00 / psy_rd=1.00:0.00 / mixed_ref=1 / me_range=48 / chroma_me=1 / trellis=2 / 8x8dct=1 / cqm=0 / deadzone=21,11 / fast_pskip=0 / chroma_qp_offset=-2 / threads=6 / lookahead_threads=1 / sliced_threads=0 / nr=0 / decimate=0 / interlaced=0 / bluray_compat=0 / constrained_intra=0 / bframes=16 / b_pyramid=2 / b_adapt=2 / b_bias=0 / direct=3 / weightb=1 / open_gop=0 / weightp=2 / keyint=240 / keyint_min=23 / scenecut=40 / intra_refresh=0 / rc_lookahead=40 / rc=2pass / mbtree=0 / bitrate=12871 / ratetol=1.0 / qcomp=0.60 / qpmin=0 / qpmax=69 / qpstep=4 / cplxblur=20.0 / qblur=0.5 / vbv_maxrate=50000 / vbv_bufsize=62500 / nal_hrd=none / filler=0 / ip_ratio=1.40 / pb_ratio=1.30 / aq=3:0.70
Язык : English
По умолчанию : Да
Принудительно : Нет
Цветовой диапазон : Limited
Основные цвета : BT.709
Характеристики трансфера : BT.709
Коэффициенты матрицы : BT.709

Аудио #1
Идентификатор : 2
Формат : AC-3
Формат/Информация : Audio Coding 3
Идентификатор кодека : A_AC3
Продолжительность : 1 ч. 55 м.
Вид битрейта : Постоянный
Битрейт : 384 Кбит/сек
Каналы : 6 каналов
Расположение каналов : Front: L C R, Side: L R, LFE
Частота : 48,0 КГц
Частота кадров : 31,250 кадров/сек (1536 SPF)
Битовая глубина : 16 бит
Метод сжатия : С потерями
Размер потока : 318 Мбайт (3%)
Заголовок : MVO | R5
Язык : Russian
По умолчанию : Да
Принудительно : Нет

Аудио #2
Идентификатор : 3
Формат : AC-3
Формат/Информация : Audio Coding 3
Идентификатор кодека : A_AC3
Продолжительность : 1 ч. 55 м.
Вид битрейта : Постоянный
Битрейт : 192 Кбит/сек
Каналы : 2 канала
Расположение каналов : Front: L R
Частота : 48,0 КГц
Частота кадров : 31,250 кадров/сек (1536 SPF)
Битовая глубина : 16 бит
Метод сжатия : С потерями
Размер потока : 159 Мбайт (1%)
Заголовок : MVO | Позитив-Мультимедиа
Язык : Russian
По умолчанию : Нет
Принудительно : Нет

Аудио #3
Идентификатор : 4
Формат : AC-3
Формат/Информация : Audio Coding 3
Идентификатор кодека : A_AC3
Продолжительность : 1 ч. 55 м.
Вид битрейта : Постоянный
Битрейт : 448 Кбит/сек
Каналы : 2 канала
Расположение каналов : Front: L R
Частота : 48,0 КГц
Частота кадров : 31,250 кадров/сек (1536 SPF)
Битовая глубина : 16 бит
Метод сжатия : С потерями
Размер потока : 371 Мбайт (3%)
Заголовок : DVO
Язык : Russian
По умолчанию : Нет
Принудительно : Нет

Аудио #4
Идентификатор : 5
Формат : AC-3
Формат/Информация : Audio Coding 3
Идентификатор кодека : A_AC3
Продолжительность : 1 ч. 55 м.
Вид битрейта : Постоянный
Битрейт : 448 Кбит/сек
Каналы : 6 каналов
Расположение каналов : Front: L C R, Side: L R, LFE
Частота : 48,0 КГц
Частота кадров : 31,250 кадров/сек (1536 SPF)
Битовая глубина : 16 бит
Метод сжатия : С потерями
Размер потока : 371 Мбайт (3%)
Заголовок : AVO | С. Визгунов
Язык : Russian
По умолчанию : Нет
Принудительно : Нет

Аудио #5
Идентификатор : 6
Формат : AC-3
Формат/Информация : Audio Coding 3
Идентификатор кодека : A_AC3
Продолжительность : 1 ч. 55 м.
Вид битрейта : Постоянный
Битрейт : 224 Кбит/сек
Каналы : 2 канала
Расположение каналов : Front: L R
Частота : 48,0 КГц
Частота кадров : 31,250 кадров/сек (1536 SPF)
Битовая глубина : 16 бит
Метод сжатия : С потерями
Размер потока : 186 Мбайт (1%)
Заголовок : AVO | Ю.Толбин
Язык : Russian
По умолчанию : Нет
Принудительно : Нет

Аудио #6
Идентификатор : 7
Формат : AC-3
Формат/Информация : Audio Coding 3
Идентификатор кодека : A_AC3
Продолжительность : 1 ч. 55 м.
Вид битрейта : Постоянный
Битрейт : 448 Кбит/сек
Каналы : 6 каналов
Расположение каналов : Front: L C R, Side: L R, LFE
Частота : 48,0 КГц
Частота кадров : 31,250 кадров/сек (1536 SPF)
Битовая глубина : 16 бит
Метод сжатия : С потерями
Размер потока : 371 Мбайт (3%)
Заголовок : Original
Язык : English
По умолчанию : Нет
Принудительно : Нет

Текст #1
Идентификатор : 8
Формат : UTF-8
Идентификатор кодека : S_TEXT/UTF8
Идентификатор кодека/Информация : UTF-8 Plain Text
Заголовок : MVO | R5
Язык : Russian
По умолчанию : Нет
Принудительно : Нет

Текст #2
Идентификатор : 9
Формат : UTF-8
Идентификатор кодека : S_TEXT/UTF8
Идентификатор кодека/Информация : UTF-8 Plain Text
Заголовок : MVO | Позитив-Мультимедиа
Язык : Russian
По умолчанию : Нет
Принудительно : Нет

Текст #3
Идентификатор : 10
Формат : UTF-8
Идентификатор кодека : S_TEXT/UTF8
Идентификатор кодека/Информация : UTF-8 Plain Text
Заголовок : SDH
Язык : English
По умолчанию : Нет
Принудительно : Нет

Меню
00:00:00.000 : en:Opening Credits
00:05:56.773 : en:Bedtime
00:12:39.926 : en:Nighttime Visitors
00:27:10.629 : en:Battle of 1796
00:39:06.010 : en:A Robbery
00:44:47.476 : en:Napoleon
00:57:38.497 : en:Some New Generals
01:03:47.323 : en:Sherwood Forest
01:16:14.445 : en:Merry Band of Robbers
01:29:09.344 : en:Mr. Hood
01:43:19.443 : en:Understanding
01:49:22.723 : en:Bullfight
Исходники аудио дорожек для релиза были взяты из первоисточников.

Релиз от:


_________________
Проголосуй за трекер Открытый торрент трекер - RUS-MEDIA.ORG

Проголосуй Открытый торрент трекер - RUS-MEDIA.ORG


Скачать книги и аудио книги через торрент


Вернуться к началу
 Профиль Отправить личное сообщение  
 
   Похожие торренты   Автор   Торрент   Размер 
В этой теме нет новых непрочитанных сообщений. Бандиты на велосипедах / BMX Bandits [драма, криминал, приключения, 1983] BDRip 720p, Mvo

salma3

0 | 0

5.45 ГБ

В этой теме нет новых непрочитанных сообщений. Бандиты / Bandits [Драма, мелодрама, комедия, 2001] BDRemux 1080p, Mvo

salma3

0 | 0

37.87 ГБ

В этой теме нет новых непрочитанных сообщений. Бандиты / Bandits [Драма, мелодрама, комедия, 2001] HDTV 1080i, Mvo [Open Matte]

salma3

0 | 0

7.54 ГБ

В этой теме нет новых непрочитанных сообщений. Полет навигатора / Flight of the Navigator [Фантастика, приключения, семейный, 1986] BDRip, Dub | Remastered

K15

0 | 0

1.46 ГБ

В этой теме нет новых непрочитанных сообщений. Полет навигатора / Flight of the Navigator [Фантастика, приключения, семейный, 1986] BDRip 1080p, Dub [Remastered]

salma3

15 | 1

9.57 ГБ

В этой теме нет новых непрочитанных сообщений. DP Bandits! / Бандиты ДП (Proxy Paige, Evil Angel) [2018 г., Gonzo, Anal, Hardcore DP, WEB-DL, 540p] (Split Scenes)

salma3

0 | 0

3.25 ГБ

В этой теме нет новых непрочитанных сообщений. Галактика ужаса / Galaxy of Terror [ужасы, фантастика, 1981] BDRip-AVC, Dvo [Remastered]

salma3

3 | 0

1.58 ГБ


Начать новую тему Ответить на тему  [ 1 сообщение ] 




Для Мосгорсуда, Роскомнадзора и рекламодателей:: rstracker[собака]yandex.ru
cron