COVID-19 - Последняя информация о коронавирусе на сайте Минздрава




Торрент файл
скачать торрент магнет ссылка Добавлен: 27 авг 2018, 10:26
Размер: 11.59 ГБ
Сидеров: 0
Личеров: 0
Статус: (salma3)
Автор

СообщениеДобавлено: 27 авг 2018, 10:26 

Не в сети
Супермодератор
Аватара пользователя
Дата регистрации:
15 фев 2012, 16:44
Возраст: 32
Спасибо: 8298 / 2148
Сообщения: 97035
Год выпуска: 1993
Выпущено: США, Rastar Productions
Жанр: Драма, мелодрама
Режиссер: Майк Фиггис

В ролях: Ричард Гир, Лена Олин, Энн Бэнкрофт, Том Ирвин, Делрой Линдо, Брюс Олтмен, Лорен Том, Лиза Малкевич, Томас Копаче, Питер Джурасик

О фильме: Мистер Джонс – человек необыкновенно одаренный, но страдающий маниакально-депрессивным психозом. Этот недуг делает все его поступки непредсказуемыми. Временами он впадает в отчаяние и пытается свести счеты с жизнью, то вдруг ощущает необычайные эмоциональные подъемы, граничащие с эйфорией и непонятные для нормальных людей. Опытный врач-психиатр Либи Боуен неожиданно для самой себя влюбляется в своего странного пациента и пытается сделать все, чтобы не случилась беда...

Продолжительность: 01:54:05
Перевод: Профессиональный многоголосый, авторский
Субтитры: Русские, английские
Навигация по главам: Есть

Файл
Качество: WEB-DL 1080p
Видео: MPEG-4 AVC, 13,5 Мбит/сек, 1920x1080, 23,976 кадра/сек
Аудио #1: AC3, 2 ch, 192 Кбит/сек | Русский, профессиональный (многоголосый закадровый)
Аудио #2: AC3, 2 ch, 192 Кбит/сек | Русский, авторский (одноголосый закадровый) Петр Карцев
Аудио #3: AC3, 2 ch, 192 Кбит/сек | Русский, авторский (одноголосый закадровый) Леонид Володарский
Аудио #4: EAC3, 2 ch, 224 Кбит/сек | Английский, оригинал



Общее
Уникальный идентификатор : 175202674794674220952931676689765146277 (0x83CECECA2BB386389E29F83F1A569EA5)
Полное имя : Мистер.Джонс.1993.WEB-DL.1080p.mkv
Формат : Matroska
Версия формата : Version 2
Размер файла : 11,6 Гбайт
Продолжительность : 1 ч. 54 м.
Общий поток : 14,5 Мбит/сек
Дата кодирования : UTC 2018-08-25 20:54:33
Программа кодирования : mkvmerge v5.8.0 ('No Sleep / Pillow') built on Sep 2 2012 15:37:04
Библиотека кодирования : libebml v1.2.3 + libmatroska v1.3.0

Видео
Идентификатор : 1
Формат : AVC
Формат/Информация : Advanced Video Codec
Профиль формата : High@L4
Настройки формата : CABAC / 4 Ref Frames
Параметр CABAC формата : Да
Параметр RefFrames формата : 4 кадра
Идентификатор кодека : V_MPEG4/ISO/AVC
Продолжительность : 1 ч. 54 м.
Битрейт : 13,5 Мбит/сек
Ширина : 1920 пикселей
Высота : 1080 пикселей
Соотношение сторон : 16:9
Режим частоты кадров : Постоянный
Частота кадров : 23,976 (24000/1001) кадра/сек
Цветовое пространство : YUV
Субдискретизация насыщенности : 4:2:0
Битовая глубина : 8 бит
Тип развёртки : Прогрессивная
Бит/(Пиксели*Кадры) : 0.271
Размер потока : 10,7 Гбайт (93%)
Язык : English
По умолчанию : Да
Принудительно : Нет
Цветовой диапазон : Limited
Основные цвета : BT.709
Характеристики трансфера : BT.709
Коэффициенты матрицы : BT.709

Аудио #1
Идентификатор : 2
Формат : AC-3
Формат/Информация : Audio Coding 3
Идентификатор кодека : A_AC3
Продолжительность : 1 ч. 54 м.
Вид битрейта : Постоянный
Битрейт : 192 Кбит/сек
Каналы : 2 канала
Расположение каналов : Front: L R
Частота : 48,0 КГц
Частота кадров : 31,250 кадров/сек (1536 SPF)
Битовая глубина : 16 бит
Метод сжатия : С потерями
Размер потока : 157 Мбайт (1%)
Заголовок : MVO
Язык : Russian
По умолчанию : Да
Принудительно : Нет

Аудио #2
Идентификатор : 3
Формат : AC-3
Формат/Информация : Audio Coding 3
Идентификатор кодека : A_AC3
Продолжительность : 1 ч. 54 м.
Вид битрейта : Постоянный
Битрейт : 192 Кбит/сек
Каналы : 2 канала
Расположение каналов : Front: L R
Частота : 48,0 КГц
Частота кадров : 31,250 кадров/сек (1536 SPF)
Битовая глубина : 16 бит
Метод сжатия : С потерями
Задержка видео : 500 мс.
Размер потока : 157 Мбайт (1%)
Заголовок : AVO | П. Карцев
Язык : Russian
По умолчанию : Нет
Принудительно : Нет

Аудио #3
Идентификатор : 4
Формат : AC-3
Формат/Информация : Audio Coding 3
Идентификатор кодека : A_AC3
Продолжительность : 1 ч. 54 м.
Вид битрейта : Постоянный
Битрейт : 192 Кбит/сек
Каналы : 2 канала
Расположение каналов : Front: L R
Частота : 48,0 КГц
Частота кадров : 31,250 кадров/сек (1536 SPF)
Битовая глубина : 16 бит
Метод сжатия : С потерями
Задержка видео : 500 мс.
Размер потока : 157 Мбайт (1%)
Заголовок : AVO | Л. Володарский
Язык : Russian
По умолчанию : Нет
Принудительно : Нет

Аудио #4
Идентификатор : 5
Формат : E-AC-3
Формат/Информация : Enhanced Audio Coding 3
Идентификатор кодека : A_EAC3
Продолжительность : 1 ч. 54 м.
Вид битрейта : Постоянный
Битрейт : 224 Кбит/сек
Каналы : 2 канала
Расположение каналов : Front: L R
Частота : 48,0 КГц
Частота кадров : 187,500 кадров/сек (256 SPF)
Метод сжатия : С потерями
Размер потока : 183 Мбайт (2%)
Заголовок : Original
Язык : English
По умолчанию : Нет
Принудительно : Нет

Текст #1
Идентификатор : 6
Формат : UTF-8
Идентификатор кодека : S_TEXT/UTF8
Идентификатор кодека/Информация : UTF-8 Plain Text
Язык : Russian
По умолчанию : Нет
Принудительно : Нет

Текст #2
Идентификатор : 7
Формат : UTF-8
Идентификатор кодека : S_TEXT/UTF8
Идентификатор кодека/Информация : UTF-8 Plain Text
Заголовок : SDH
Язык : English
По умолчанию : Нет
Принудительно : Нет

Меню
00:00:00.000 : en:Chapter 01
00:02:44.494 : en:Chapter 02
00:07:03.002 : en:Chapter 03
00:10:16.570 : en:Chapter 04
00:14:24.526 : en:Chapter 05
00:16:00.205 : en:Chapter 06
00:19:46.515 : en:Chapter 07
00:21:05.802 : en:Chapter 08
00:24:56.366 : en:Chapter 09
00:27:00.448 : en:Chapter 10
00:31:10.365 : en:Chapter 11
00:35:14.567 : en:Chapter 12
00:39:18.769 : en:Chapter 13
00:46:16.770 : en:Chapter 14
00:50:50.085 : en:Chapter 15
00:52:31.144 : en:Chapter 16
00:55:27.362 : en:Chapter 17
01:00:53.479 : en:Chapter 18
01:06:35.196 : en:Chapter 19
01:13:29.151 : en:Chapter 20
01:15:19.311 : en:Chapter 21
01:17:54.583 : en:Chapter 22
01:21:33.009 : en:Chapter 23
01:31:04.455 : en:Chapter 24
01:32:37.506 : en:Chapter 25
01:34:37.677 : en:Chapter 26
01:37:30.674 : en:Chapter 27
01:44:00.147 : en:Chapter 28
01:50:25.263 : en:Chapter 29
• Исходник видео WEB-DL Amazon.

Сборка:


_________________
Проголосуй за трекер Открытый торрент трекер - RUS-MEDIA.ORG

Проголосуй Открытый торрент трекер - RUS-MEDIA.ORG


Скачать книги и аудио книги через торрент


Вернуться к началу
 Профиль Отправить личное сообщение  
 
   Похожие торренты   Автор   Торрент   Размер 
В этой теме нет новых непрочитанных сообщений. Джессика Джонс / Jessica Jones [S03] [Фантастика, боевик, драма, криминал, экранизация комиксов, 2019] WEBRip 1080p, Mvo [Profix Media]

Haint

2 | 8

27.86 ГБ

В этой теме нет новых непрочитанных сообщений. Джессика Джонс / Jessica Jones [03x01-10 из 13] [фантастика, боевик, триллер, 2019] WEB-DLRip, Mvo [LostFilm]

salma3

0 | 1

7.16 ГБ

В этой теме нет новых непрочитанных сообщений. Джессика Джонс / Jessica Jones [S03] [фантастика, боевик, триллер, 2019] WEBRip 1080p, Mvo [TVShows]

salma3

0 | 0

23.04 ГБ

В этой теме нет новых непрочитанных сообщений. Джессика Джонс / Jessica Jones [S03] [Фантастика, боевик, драма, 2019] WEBRip 720p, Mvo [NewStudio]

salma3

0 | 0

41.21 ГБ

В этой теме нет новых непрочитанных сообщений. Джессика Джонс / Jessica Jones [S03] [Боевик, драма, криминал, фантастика, 2019] WEBRip 720p, Mvo [BigSinema]

OLEG270877

0 | 0

19.65 ГБ

В этой теме нет новых непрочитанных сообщений. Джессика Джонс / Jessica Jones [03x01-10 из 13] [Фантастика, боевик, драма, криминал, экранизация комиксов, 2019] WEBRip 1080p | [Gears Media]

NTL

0 | 0

21.82 ГБ

В этой теме нет новых непрочитанных сообщений. Джессика Джонс / Jessica Jones [S03] [Фантастика, боевик, драма, криминал, экранизация комиксов, 2019] WEBRip, Mvo [Profix Media]

Haint

1 | 0

7.38 ГБ


Начать новую тему Ответить на тему  [ 1 сообщение ] 




Для Мосгорсуда, Роскомнадзора и рекламодателей:: rstracker[собака]yandex.ru
cron