COVID-19 - Последняя информация о коронавирусе на сайте Минздрава




Торрент файл
скачать торрент магнет ссылка Добавлен: 26 авг 2018, 09:46
Размер: 8.62 ГБ
Сидеров: 0
Личеров: 0
Статус: (salma3)
Автор

СообщениеДобавлено: 26 авг 2018, 09:46 

Не в сети
Супермодератор
Аватара пользователя
Дата регистрации:
15 фев 2012, 16:44
Возраст: 30
Спасибо: 8217 / 2148
Сообщения: 95904
Год выхода: 1997
Страна: США
Жанр: Боевик, Триллер, Ужасы
Продолжительность: 01:38:33
Перевод: Профессиональный (многоголосый закадровый), Профессиональный (двухголосый закадровый), Авторский

Режиссер: Марк Э. З. Диппе / Mark A.Z. Dippe
В ролях: Джон Легуизамо, Мартин Шин, Тереза Рэндл, Майко Хьюз, Д.Б. Суини, Майкл Джэй Уайт, Мелинда Кларк, Никол Уильямсон, Сидни Бодуан

О фильме: Идет извечная борьба между между небесами и адом. Их армии пополняются душами, взятыми с Земли. Дьявол послал лейтенанта, чтобы собрать людей, которые помогут уничтожить мир в обмен на богатство и власть и добыть достаточно душ, чтобы укомплектовать свою армию и позволить Армагеддону начаться. Все, что сейчас нужно Мел Боуги, — это великий воин, кто-то, кто бы повел свою орду к небесным вратам и испепелил бы их...
Эл Симмонз, лучший из террористов, состоял на службе у господина Вина, давно продавшего свою душу Дьяволу за господство над миром. В войне между небесами и адом силам зла требуется самый лучший боец из ныне живущих. Им как раз и оказался Эл. После страшного взрыва, устроенного Вином на одном из заводов биологического оружия, Эл попадает в потусторонний мир, приобретая качества сверхъестественные, поддающиеся, однако, самоконтролю. Бывший террорист оказался добрым малым, и адский "клоун", подстегивающий Спауна (Эла) на жуткие злодеяния, терпит поражение. Фильм поставлен по комиксам Тодда МакФарлэйна...



Кодек: х264
Качество: BDRip 720p
Видео: MPEG-4 AVC, 9150 Кбит/с, 1280x720, 23.976 fps
Аудио 1: Русский, АС-3, 48.0 KHz, 6 ch, 448 Кбит/с, DVO (ИНИС)
Аудио 2: Русский, AC-3, 48.0 KHz, 6 ch, 448 Кбит/с, МVO (Киномания)
Аудио 3: Русский, AC-3, 48.0 KHz, 2 ch, 192 Кбит/с, MVO
Аудио 4: Русский, AC-3, 48.0 KHz, 2 ch, 192 Кбит/с, DVO (Юниверсал)
Аудио 5: Русский, AC-3, 48.0 KHz, 2 ch, 192 Кбит/с, DVO (Союз-Видео)
Аудио 6: Русский, AC-3, 48.0 KHz, 6 ch, 448 Кбит/с, AVO (А.Гаврилов)
Аудио 7: Русский, AC-3, 48.0 KHz, 6 ch, 448 Кбит/с, AVO (Ю.Живов)
Аудио 8: Русский, AC-3, 48.0 KHz, 2 ch, 192 Кбит/с, AVO (С.Визгунов)
Аудио 9: Русский, AC-3, 48.0 KHz, 2 ch, 192 Кбит/с, AVO (Бойков)
Аудио 10: Английский, AC-3, 48.0 KHz, 6 ch, 448 Кбит/с, Original
Аудио 11: Английский, AC-3, 48.0 KHz, 2 ch, 192 Кбит/с, Сommentary by Creator Todd McFarlane, Director Mark A.Z. Dippé,
Producer Clint Goldman & Visual Effects Supervisor Steve Williams
Субтитры: Русские, английские
Главы: Есть

x264 [info]: frame I:953 Avg QP:18.10 size:155149
x264 [info]: frame P:35072 Avg QP:20.61 size: 80565
x264 [info]: frame B:105754 Avg QP:22.83 size: 35659

Общее
Уникальный идентификатор : 252868942748905518798872942571541478257 (0xBE3CC9714454271F98424EAC9883BB71)
Полное имя : I:коллекцияСпаун 1997_BDRip 720p.mkv
Формат : Matroska
Версия формата : Version 2
Размер файла : 8,62 Гбайт
Продолжительность : 1 ч. 38 м.
Общий поток : 12,5 Мбит/сек
Название фильма : Spawn 1997_BDRip 720p_mister.hats
Дата кодирования : UTC 2018-08-25 21:12:45
Программа кодирования : mkvmerge v5.8.0 ('No Sleep / Pillow') built on Sep 2 2012 15:37:04
Библиотека кодирования : libebml v1.2.3 + libmatroska v1.3.0

Видео
Идентификатор : 1
Формат : AVC
Формат/Информация : Advanced Video Codec
Профиль формата : High@L4.1
Настройки формата : CABAC / 9 Ref Frames
Параметр CABAC формата : Да
Параметр RefFrames формата : 9 кадров
Идентификатор кодека : V_MPEG4/ISO/AVC
Продолжительность : 1 ч. 38 м.
Битрейт : 9125 Кбит/сек
Ширина : 1280 пикселей
Высота : 720 пикселей
Соотношение сторон : 16:9
Режим частоты кадров : Постоянный
Частота кадров : 23,976 (24000/1001) кадра/сек
Цветовое пространство : YUV
Субдискретизация насыщенности : 4:2:0
Битовая глубина : 8 бит
Тип развёртки : Прогрессивная
Бит/(Пиксели*Кадры) : 0.413
Размер потока : 6,11 Гбайт (71%)
Библиотека кодирования : x264 core 152 r2851kMod ba24899
Настройки программы : cabac=1 / ref=9 / deblock=1:-2:-2 / analyse=0x3:0x113 / me=umh / subme=11 / psy=1 / fade_compensate=0.00 / psy_rd=1.02:0.03 / mixed_ref=1 / me_range=48 / chroma_me=1 / trellis=2 / 8x8dct=1 / cqm=0 / deadzone=21,11 / fast_pskip=0 / chroma_qp_offset=-3 / threads=12 / lookahead_threads=3 / sliced_threads=0 / nr=0 / decimate=0 / interlaced=0 / bluray_compat=0 / constrained_intra=0 / bframes=11 / b_pyramid=2 / b_adapt=2 / b_bias=0 / direct=3 / weightb=1 / open_gop=0 / weightp=2 / keyint=240 / keyint_min=23 / scenecut=40 / intra_refresh=0 / rc_lookahead=40 / rc=2pass / mbtree=0 / bitrate=9125 / ratetol=1.0 / qcomp=0.60 / qpmin=0 / qpmax=39 / qpstep=4 / cplxblur=20.0 / qblur=0.5 / vbv_maxrate=50000 / vbv_bufsize=62500 / nal_hrd=none / filler=0 / ip_ratio=1.25 / pb_ratio=1.30 / aq=1:1.00
Язык : English
Default : Да
Forced : Нет
Цветовой диапазон : Limited
Основные цвета : BT.709
Характеристики трансфера : BT.709
Коэффициенты матрицы : BT.709

Аудио #1
Идентификатор : 2
Формат : AC-3
Формат/Информация : Audio Coding 3
Параметр Endianness формата : Big
Идентификатор кодека : A_AC3
Продолжительность : 1 ч. 38 м.
Вид битрейта : Постоянный
Битрейт : 448 Кбит/сек
Каналы : 6 каналов
Расположение каналов : Front: L C R, Side: L R, LFE
Частота : 48,0 КГц
Частота кадров : 31,250 кадров/сек (1536 SPF)
Битовая глубина : 16 бит
Метод сжатия : С потерями
Размер потока : 316 Мбайт (4%)
Заголовок : AC3, 48kHz, 6ch, 448kbps, DVO, ИНИС
Язык : Russian
Default : Да
Forced : Нет

Аудио #2
Идентификатор : 3
Формат : AC-3
Формат/Информация : Audio Coding 3
Параметр Endianness формата : Big
Идентификатор кодека : A_AC3
Продолжительность : 1 ч. 38 м.
Вид битрейта : Постоянный
Битрейт : 448 Кбит/сек
Каналы : 6 каналов
Расположение каналов : Front: L C R, Side: L R, LFE
Частота : 48,0 КГц
Частота кадров : 31,250 кадров/сек (1536 SPF)
Битовая глубина : 16 бит
Метод сжатия : С потерями
Размер потока : 316 Мбайт (4%)
Заголовок : AC3, 48kHz, 6ch, 448kbps, MVO, Киномания
Язык : Russian
Default : Нет
Forced : Нет

Аудио #3
Идентификатор : 4
Формат : AC-3
Формат/Информация : Audio Coding 3
Параметр Endianness формата : Big
Идентификатор кодека : A_AC3
Продолжительность : 1 ч. 38 м.
Вид битрейта : Постоянный
Битрейт : 192 Кбит/сек
Каналы : 2 канала
Расположение каналов : Front: L R
Частота : 48,0 КГц
Частота кадров : 31,250 кадров/сек (1536 SPF)
Битовая глубина : 16 бит
Метод сжатия : С потерями
Размер потока : 135 Мбайт (2%)
Заголовок : AC3, 48kHz, 2ch, 192kbps, MVO
Язык : Russian
Default : Нет
Forced : Нет

Аудио #4
Идентификатор : 5
Формат : AC-3
Формат/Информация : Audio Coding 3
Параметр Endianness формата : Big
Идентификатор кодека : A_AC3
Продолжительность : 1 ч. 38 м.
Вид битрейта : Постоянный
Битрейт : 192 Кбит/сек
Каналы : 2 канала
Расположение каналов : Front: L R
Частота : 48,0 КГц
Частота кадров : 31,250 кадров/сек (1536 SPF)
Битовая глубина : 16 бит
Метод сжатия : С потерями
Размер потока : 135 Мбайт (2%)
Заголовок : AC3, 48kHz, 2ch, 192kbps, DVO, Universal
Язык : Russian
Default : Нет
Forced : Нет

Аудио #5
Идентификатор : 6
Формат : AC-3
Формат/Информация : Audio Coding 3
Параметр Endianness формата : Big
Идентификатор кодека : A_AC3
Продолжительность : 1 ч. 38 м.
Вид битрейта : Постоянный
Битрейт : 192 Кбит/сек
Каналы : 2 канала
Расположение каналов : Front: L R
Частота : 48,0 КГц
Частота кадров : 31,250 кадров/сек (1536 SPF)
Битовая глубина : 16 бит
Метод сжатия : С потерями
Размер потока : 135 Мбайт (2%)
Заголовок : AC3, 48kHz, 2ch, 192kbps, DVO, Союз-Видео
Язык : Russian
Default : Нет
Forced : Нет

Аудио #6
Идентификатор : 7
Формат : AC-3
Формат/Информация : Audio Coding 3
Параметр Endianness формата : Big
Идентификатор кодека : A_AC3
Продолжительность : 1 ч. 38 м.
Вид битрейта : Постоянный
Битрейт : 448 Кбит/сек
Каналы : 6 каналов
Расположение каналов : Front: L C R, Side: L R, LFE
Частота : 48,0 КГц
Частота кадров : 31,250 кадров/сек (1536 SPF)
Битовая глубина : 16 бит
Метод сжатия : С потерями
Размер потока : 316 Мбайт (4%)
Заголовок : AC3, 48kHz, 6ch, 448kbps, AVO, Андрей Гаврилов
Язык : Russian
Default : Нет
Forced : Нет

Аудио #7
Идентификатор : 8
Формат : AC-3
Формат/Информация : Audio Coding 3
Параметр Endianness формата : Big
Идентификатор кодека : A_AC3
Продолжительность : 1 ч. 38 м.
Вид битрейта : Постоянный
Битрейт : 448 Кбит/сек
Каналы : 6 каналов
Расположение каналов : Front: L C R, Side: L R, LFE
Частота : 48,0 КГц
Частота кадров : 31,250 кадров/сек (1536 SPF)
Битовая глубина : 16 бит
Метод сжатия : С потерями
Задержка видео : 24 мс.
Размер потока : 316 Мбайт (4%)
Заголовок : AC3, 48kHz, 6ch, 448kbps, AVO, Ю.Живов
Язык : Russian
Default : Нет
Forced : Нет

Аудио #8
Идентификатор : 9
Формат : AC-3
Формат/Информация : Audio Coding 3
Параметр Endianness формата : Big
Идентификатор кодека : A_AC3
Продолжительность : 1 ч. 38 м.
Вид битрейта : Постоянный
Битрейт : 192 Кбит/сек
Каналы : 2 канала
Расположение каналов : Front: L R
Частота : 48,0 КГц
Частота кадров : 31,250 кадров/сек (1536 SPF)
Битовая глубина : 16 бит
Метод сжатия : С потерями
Размер потока : 135 Мбайт (2%)
Заголовок : AC3, 48kHz, 2ch, 192kbps, AVO, Сергей Визгунов
Язык : Russian
Default : Нет
Forced : Нет

Аудио #9
Идентификатор : 10
Формат : AC-3
Формат/Информация : Audio Coding 3
Параметр Endianness формата : Big
Идентификатор кодека : A_AC3
Продолжительность : 1 ч. 38 м.
Вид битрейта : Постоянный
Битрейт : 192 Кбит/сек
Каналы : 2 канала
Расположение каналов : Front: L R
Частота : 48,0 КГц
Частота кадров : 31,250 кадров/сек (1536 SPF)
Битовая глубина : 16 бит
Метод сжатия : С потерями
Размер потока : 135 Мбайт (2%)
Заголовок : AC3, 48kHz, 2ch, 192kbps, АVO, Бойков
Язык : Russian
Default : Нет
Forced : Нет

Аудио #10
Идентификатор : 11
Формат : AC-3
Формат/Информация : Audio Coding 3
Параметр Endianness формата : Big
Идентификатор кодека : A_AC3
Продолжительность : 1 ч. 38 м.
Вид битрейта : Постоянный
Битрейт : 448 Кбит/сек
Каналы : 6 каналов
Расположение каналов : Front: L C R, Side: L R, LFE
Частота : 48,0 КГц
Частота кадров : 31,250 кадров/сек (1536 SPF)
Битовая глубина : 16 бит
Метод сжатия : С потерями
Задержка видео : 24 мс.
Размер потока : 316 Мбайт (4%)
Заголовок : AC3, 48kHz, 6ch, 448kbps, Original
Язык : English
Default : Нет
Forced : Нет

Аудио #11
Идентификатор : 12
Формат : AC-3
Формат/Информация : Audio Coding 3
Параметр Endianness формата : Big
Идентификатор кодека : A_AC3
Продолжительность : 1 ч. 38 м.
Вид битрейта : Постоянный
Битрейт : 192 Кбит/сек
Каналы : 2 канала
Расположение каналов : Front: L R
Частота : 48,0 КГц
Частота кадров : 31,250 кадров/сек (1536 SPF)
Битовая глубина : 16 бит
Метод сжатия : С потерями
Размер потока : 135 Мбайт (2%)
Заголовок : AC3, 48kHz, 2ch, 192kbps, Commentary
Язык : English
Default : Нет
Forced : Нет

Текст #1
Идентификатор : 13
Формат : UTF-8
Идентификатор кодека : S_TEXT/UTF8
Идентификатор кодека/Информация : UTF-8 Plain Text
Заголовок : Full
Язык : Russian
Default : Нет
Forced : Нет

Текст #2
Идентификатор : 14
Формат : UTF-8
Идентификатор кодека : S_TEXT/UTF8
Идентификатор кодека/Информация : UTF-8 Plain Text
Заголовок : SDH
Язык : English
Default : Нет
Forced : Нет

Меню
00:00:00.000 : :Chapter 01
00:03:24.203 : :Chapter 02
00:06:20.797 : :Chapter 03
00:08:02.982 : :Chapter 04
00:11:28.562 : :Chapter 05
00:14:36.876 : :Chapter 06
00:18:34.238 : :Chapter 07
00:22:27.554 : :Chapter 08
00:26:49.232 : :Chapter 09
00:31:23.881 : :Chapter 10
00:33:02.980 : :Chapter 11
00:37:40.424 : :Chapter 12
00:45:22.720 : :Chapter 13
00:47:59.293 : :Chapter 14
00:52:18.969 : :Chapter 15
00:56:03.443 : :Chapter 16
01:04:19.021 : :Chapter 17
01:07:48.439 : :Chapter 18
01:09:50.060 : :Chapter 19
01:12:35.434 : :Chapter 20
01:16:43.932 : :Chapter 21
01:22:41.873 : :Chapter 22
01:26:14.294 : :Chapter 23
01:31:55.927 : :Chapter 24






_________________
Проголосуй за трекер Открытый торрент трекер - RUS-MEDIA.ORG

Проголосуй Открытый торрент трекер - RUS-MEDIA.ORG


Скачать книги и аудио книги через торрент


Вернуться к началу
 Профиль Отправить личное сообщение  
 
   Похожие торренты   Автор   Торрент   Размер 
В этой теме нет новых непрочитанных сообщений. Спаун / Отродье / Spawn [фантастика, триллер, ужасы, 1997] BDRip-HEVC, Mvo [Режиссёрская версия]

salma3

38 | 6

2.05 ГБ

В этой теме нет новых непрочитанных сообщений. Полицейские / Cop Land [Триллер, драма, криминал, 1997] BDRip-AVC, Mvo [Режиссёрская версия]

salma3

0 | 0

745.15 МБ

В этой теме нет новых непрочитанных сообщений. Пила 2 / Saw II [ужасы, детектив, триллер, 2005] BDRip 720p, Dub [Режиссерская версия]

salma3

0 | 0

8.84 ГБ

В этой теме нет новых непрочитанных сообщений. Пила 5 / Saw V [ужасы, детектив, триллер, 2008] BDRip 720p, Dub [Режиссерская версия]

salma3

0 | 0

6.58 ГБ

В этой теме нет новых непрочитанных сообщений. Пила 6 / Saw VI [ужасы, детектив, триллер, 2009] BDRip 720p, Dub [Режиссерская версия]

salma3

0 | 0

5.76 ГБ

В этой теме нет новых непрочитанных сообщений. Пила 4 / Saw IV [ужасы, триллер, детектив, 2007] BDRip 720p, Dub [Режиссерская версия]

salma3

0 | 0

7.76 ГБ

В этой теме нет новых непрочитанных сообщений. Пила 3 / Saw III [ужасы, детектив, триллер, 2006] BDRip 720p, Dub [Режиссерская версия]

salma3

0 | 0

9.71 ГБ


Начать новую тему Ответить на тему  [ 1 сообщение ] 




Для Мосгорсуда, Роскомнадзора и рекламодателей:: rstracker[собака]yandex.ru
cron