COVID-19 - Последняя информация о коронавирусе на сайте Минздрава




Торрент файл
скачать торрент магнет ссылка Добавлен: 15 авг 2018, 16:11
Размер: 11.53 ГБ
Сидеров: 0
Личеров: 0
Статус: (salma3)
Автор

СообщениеДобавлено: 15 авг 2018, 16:11 

Не в сети
Супермодератор
Аватара пользователя
Дата регистрации:
15 фев 2012, 16:44
Возраст: 31
Спасибо: 8283 / 2148
Сообщения: 96789
Год выпуска: 2005
Жанр: Триллер, драма, криминал
Выпущено: США, Германия, Cheyenne Enterprises, Equity Pictures Medienfonds GmbH & Co. KG II, Hostage GmbH, Miramax Films, Stratus Film Co.
Режиссер: Флоран Эмилио Сири
В ролях: Брюс Уиллис, Кевин Поллак, Бен Фостер, Джонатан Такер, Маршалл Оллман, Мишель Хорн, Джимми Беннетт, Серена Скотт-Томас, Румер Уиллис, Роберт Неппер, Ким Коутс, Тина Лиффорд, Рэнсфорд Доэрти, Марджин Холден, Майкл Д. Робертс, Арт ЛаФлёр, Рэнди МакФерсон

О фильме: Джеф Тэлли, бывший переговорщик секретных служб Лос-Анджелеса, переезжает работать в провинциальный городок, оставив жену и дочь в Лос Анджелесе. Когда в его округе происходит ограбление, три преступника берут в заложники ничего не подозревающую семью. Но у отца семейства есть тайна, которая могла бы поставить под угрозу его семью, а один из преступников уже начал терять самообладание…. Джеф Тэлли должен сделать все, что в его силах, чтобы эта ночь не стала последней для невинных людей. Экранизация по произведению: Роберт Крэйс.



Релиз:

Качество: BDRip (1080p)
Видео: MPEG-4 AVC, 11.2 Мбит/с, 1920x816, 23.976 кадр/с
Аудио#1: Russian: 48 kHz, DTS, 3/2 (L,C,R,l,r) + LFE ch, ~768.00 kbps avg |Дубляж|
Аудио#2: Ukrainian: 48 kHz, AC3, 2 (L,R) ch, ~256.00 kbps avg|Многоголосый закадровый|
Аудио#3: Russian: 48 kHz, DTS, 3/2 (L,C,R,l,r) + LFE ch, ~768.00 kbps avg |Одноголосый закадровый, A.Гаврилов|
Аудио#4: English: 48 kHz, DTS, 3/2 (L,C,R,l,r) + LFE ch, ~1536.00 kbps avg
Аудио#5: English: 48 kHz, Vorbis, 2,0 (L,R) ch, ~80.00 kbps avg
Размер: 11.53 ГБ
Продолжительность: 01:55:33
Перевод: Дублированный, авторский
Субтитры: Русские, английские, голландские, немецкие, португальские, испанские

General
Unique ID : 214252740760337048796624344242164395369 (0xA12F93B05B44A3F1BCF79178ADB4ED69)
Format : Matroska
Format version : Version 1
File size : 11.5 GiB
Duration : 1h 53mn
Overall bit rate mode : Variable
Overall bit rate : 14.6 Mbps
Movie name : Hostage (2005) - Release for HDClub
Encoded date : UTC 2009-04-25 17:03:19
Writing application : mkvmerge v2.1.0 ('Another Place To Fall') built on Aug 19 2007 13:40:07
Writing library : libebml v0.7.7 + libmatroska v0.8.1

Video
ID : 1
Format : AVC
Format/Info : Advanced Video Codec
Format profile : High@L4.1
Format settings, CABAC : Yes
Format settings, ReFrames : 5 frames
Codec ID : V_MPEG4/ISO/AVC
Duration : 1h 53mn
Bit rate : 11.2 Mbps
Width : 1 920 pixels
Height : 816 pixels
Display aspect ratio : 2.35:1
Frame rate mode : Constant
Frame rate : 23.976 fps
Color space : YUV
Chroma subsampling : 4:2:0
Bit depth : 8 bits
Scan type : Progressive
Bits/(Pixel*Frame) : 0.299
Stream size : 8.65 GiB (75%)
Title : Release for HDClub
Writing library : x264 core 60 r886M 1075536
Encoding settings : cabac=1 / ref=5 / deblock=1:-3:-3 / analyse=0x3:0x113 / me=umh / subme=7 / brdo=1 / mixed_ref=1 / me_range=16 / chroma_me=1 / trellis=0 / 8x8dct=1 / cqm=2 / deadzone=6,4 / chroma_qp_offset=0 / threads=3 / nr=0 / decimate=1 / mbaff=0 / fgo=10 / bframes=5 / b_pyramid=1 / b_adapt=1 / b_bias=0 / direct=3 / wpredb=1 / bime=1 / keyint=250 / keyint_min=25 / scenecut=40(pre) / rc=2pass / bitrate=11217 / ratetol=1.0 / rceq='blurCplx^(1-qComp)' / qcomp=1.00 / qpmin=10 / qpmax=51 / qpstep=4 / cplxblur=20.0 / qblur=0.5 / ip_ratio=1.40 / pb_ratio=1.15 / aq=2:0.60
Language : English
Default : Yes
Forced : No

Audio #1
ID : 2
Format : DTS
Format/Info : Digital Theater Systems
Mode : 16
Format settings, Endianness : Big
Codec ID : A_DTS
Duration : 1h 53mn
Bit rate mode : Constant
Bit rate : 755 Kbps
Channel(s) : 6 channels
Channel positions : Front: L C R, Side: L R, LFE
Sampling rate : 48.0 KHz
Bit depth : 24 bits
Compression mode : Lossy
Stream size : 612 MiB (5%)
Title : DTS 5.1 @ 768 Дубляж
Language : Russian
Default : Yes
Forced : No

Audio #2
ID : 3
Format : AC-3
Format/Info : Audio Coding 3
Mode extension : CM (complete main)
Format settings, Endianness : Big
Codec ID : A_AC3
Duration : 1h 53mn
Bit rate mode : Constant
Bit rate : 256 Kbps
Channel(s) : 2 channels
Channel positions : Front: L R
Sampling rate : 48.0 KHz
Bit depth : 16 bits
Compression mode : Lossy
Stream size : 208 MiB (2%)
Title : AC3 5.1 @ 256 Многоголосый закадровый
Language : Ukrainian
Default : No
Forced : No

Audio #3
ID : 4
Format : DTS
Format/Info : Digital Theater Systems
Mode : 16
Format settings, Endianness : Big
Codec ID : A_DTS
Duration : 1h 53mn
Bit rate mode : Constant
Bit rate : 755 Kbps
Channel(s) : 6 channels
Channel positions : Front: L C R, Side: L R, LFE
Sampling rate : 48.0 KHz
Bit depth : 24 bits
Compression mode : Lossy
Stream size : 612 MiB (5%)
Title : DTS 5.1 @ 768 Одноголосый закадровый - Гаврилов
Language : Russian
Default : No
Forced : No

Audio #4
ID : 5
Format : DTS
Format/Info : Digital Theater Systems
Mode : 16
Format settings, Endianness : Big
Codec ID : A_DTS
Duration : 1h 53mn
Bit rate mode : Constant
Bit rate : 1 509 Kbps
Channel(s) : 6 channels
Channel positions : Front: L C R, Side: L R, LFE
Sampling rate : 48.0 KHz
Bit depth : 16 bits
Compression mode : Lossy
Stream size : 1.19 GiB (10%)
Title : DTS 5.1 @ 1536
Language : English
Default : No
Forced : No

Audio #5
ID : 6
Format : Vorbis
Format settings, Floor : 1
Codec ID : A_VORBIS
Duration : 1h 53mn
Bit rate mode : Variable
Bit rate : 80.0 Kbps
Channel(s) : 2 channels
Sampling rate : 48.0 KHz
Compression mode : Lossy
Delay relative to video : 1ms
Stream size : 64.8 MiB (1%)
Title : Ogg Vorbis 2.0 (Commentary)
Writing library : libVorbis 1.2 (UTC 2007-06-22)
Language : English
Default : No
Forced : No

Text #1
ID : 7
Format : UTF-8
Codec ID : S_TEXT/UTF8
Codec ID/Info : UTF-8 Plain Text
Language : Russian
Default : Yes
Forced : No

Text #2
ID : 8
Format : UTF-8
Codec ID : S_TEXT/UTF8
Codec ID/Info : UTF-8 Plain Text
Language : English
Default : No
Forced : No

Text #3
ID : 9
Format : UTF-8
Codec ID : S_TEXT/UTF8
Codec ID/Info : UTF-8 Plain Text
Language : Dutch
Default : No
Forced : No

Text #4
ID : 10
Format : UTF-8
Codec ID : S_TEXT/UTF8
Codec ID/Info : UTF-8 Plain Text
Language : German
Default : No
Forced : No

Text #5
ID : 11
Format : UTF-8
Codec ID : S_TEXT/UTF8
Codec ID/Info : UTF-8 Plain Text
Language : Portuguese
Default : No
Forced : No

Text #6
ID : 12
Format : UTF-8
Codec ID : S_TEXT/UTF8
Codec ID/Info : UTF-8 Plain Text
Language : Spanish
Default : No
Forced : No


_________________
Проголосуй за трекер Открытый торрент трекер - RUS-MEDIA.ORG

Проголосуй Открытый торрент трекер - RUS-MEDIA.ORG


Скачать книги и аудио книги через торрент


Вернуться к началу
 Профиль Отправить личное сообщение  
 
   Похожие торренты   Автор   Торрент   Размер 
В этой теме нет новых непрочитанных сообщений. Заложник / Hostage [Триллер, драма, криминал, 2005] BDRip 720p, Dub

salma3

0 | 0

7.15 ГБ

В этой теме нет новых непрочитанных сообщений. Заложник / Seized [Боевик, триллер, 2020] BDRip, Dub [iTunes]

salma3

12 | 4

1.46 ГБ

В этой теме нет новых непрочитанных сообщений. Перевозчик 2 / Transporter 2 [боевик, триллер, криминал, 2005] BDRip-HEVC 1080p, Dub

salma3

0 | 0

6.55 ГБ

В этой теме нет новых непрочитанных сообщений. Дом 1000 трупов 2: Изгнанные дьяволом / The Devil's Rejects [Ужасы, триллер, криминал, 2005] BDRip 1080p, Dub

salma3

2 | 0

10.87 ГБ

В этой теме нет новых непрочитанных сообщений. Пиджак / The Jacket [фантастика, триллер, драма, 2005] BDRip-HEVC 1080p, Dub

salma3

0 | 0

6.27 ГБ

В этой теме нет новых непрочитанных сообщений. Нападение на 13-й участок / Assault on Precinct 13 [боевик, триллер, драма, 2005] BDRip 1080p, Dub

salma3

1 | 1

13.79 ГБ

В этой теме нет новых непрочитанных сообщений. Переводчица / The Interpreter [триллер, криминал, детектив, 2005] BDRip, Dub

salma3

0 | 0

2.59 ГБ


Начать новую тему Ответить на тему  [ 1 сообщение ] 




Для Мосгорсуда, Роскомнадзора и рекламодателей:: rstracker[собака]yandex.ru
cron