Торрент файл
скачать торрент магнет ссылка Добавлен: 15 авг 2018, 11:11
Размер: 5.65 ГБ
Сидеров: 0
Личеров: 0
Статус: (salma3)
Автор

СообщениеДобавлено: 15 авг 2018, 11:11 

Не в сети
Супермодератор
Аватара пользователя
Дата регистрации:
15 фев 2012, 16:44
Возраст: 29
Спасибо: 7339 / 2147
Сообщения: 75613
Год выхода: 2010
Жанр: боевик, фэнтези, приключения
Режиссер: М. Найт Шьямалан

В ролях: Ноа Рингер, Дев Патель, Никола Пельтц, Джексон Рэтбоун, Шон Тоуб, Аасиф Мандви, Клифф Кёртис, Сейшелл Гэбриел, Кэтрин Хотон, Френсис Гуинан

О фильме:
Воздушные кочевники, Племя Воды, Царство Земли и Народ Огня. Четыре нации были связаны судьбой, когда Народ Огня начал жестокую войну против всех. Прошло сто лет без надежды что-то изменить в этом мире. Народ Огня почти близок к победе в войне. Оказавшись между борьбой и храбростью, юный Аанг понимает, что он — Аватар, обладающий силой повелевать четырьмя стихиями, и то, что только он может вернуть баланс и восстановить мир на земле. Вместе с юной повелительницей воды Катарой и её братом Соккой он отправляется в путешествие.



Страна: США
Продолжительность: 01:43:13
Перевод: Профессиональный дублированный

Файл
Кодек: HEVC x265 10bit
Качество: BDRip-HEVC 1080p
Видео: 1920x816 (2.35:1), 6742 Кбит/сек, 0.179 бит/(Пиксели*Кадры), 23.976 (24000/1001) кадр/сек, (Main10@L.4.1@High), 10 бит
Звук:
Аудио1: Русская, AC3 640 Кбит/сек, 6 канала(ов),16bit 48,0 КГц
Аудио2: English, AC3 448 Кбит/сек, 6 канала(ов),16bit 48,0 КГц
Субтитры: Русские, English
Навигация по главам: Есть

General
Unique ID : 201318256468422080940790234283859810692 (0x97747C609028E7228AA9C6B0ADFC9984)
Complete name : F:HEVCThe Last Airbender (2010) BDRip 1080p [HEVC] 10Bit_Cthulhu.mkv
Format : Matroska
Format version : Version 4 / Version 2
File size : 5.65 GiB
Duration : 1 h 43 min
Overall bit rate : 7 832 kb/s
Movie name : rip_by_Cthulhu
Encoded date : UTC 2018-08-14 21:31:47
Writing application : mkvmerge v18.0.0 ('Apricity') 64-bit
Writing library : libebml v1.3.5 + libmatroska v1.4.8
Cover : Yes
Attachments : cover.jpg

Video
ID : 1
Format : HEVC
Format/Info : High Efficiency Video Coding
Format profile : Main 10@L4.1@High
Codec ID : V_MPEGH/ISO/HEVC
Duration : 1 h 43 min
Bit rate : 6 742 kb/s
Width : 1 920 pixels
Height : 816 pixels
Display aspect ratio : 2.35:1
Frame rate mode : Constant
Frame rate : 23.976 (24000/1001) FPS
Color space : YUV
Chroma subsampling : 4:2:0
Bit depth : 10 bits
Bits/(Pixel*Frame) : 0.179
Stream size : 4.86 GiB (86%)
Writing library : x265 2.8+49-5d34bbf671f7:[Windows][GCC 8.1.1][64 bit] 10bit
Encoding settings : cpuid=1049583 / frame-threads=4 / numa-pools=4 / wpp / no-pmode / no-pme / no-psnr / no-ssim / log-level=2 / input-csp=1 / input-res=1920x816 / interlace=0 / total-frames=148488 / level-idc=41 / high-tier=1 / uhd-bd=0 / ref=5 / no-allow-non-conformance / no-repeat-headers / annexb / no-aud / no-hrd / info / hash=0 / no-temporal-layers / open-gop / min-keyint=23 / keyint=240 / gop-lookahead=0 / bframes=8 / b-adapt=2 / b-pyramid / bframe-bias=0 / rc-lookahead=40 / lookahead-slices=4 / scenecut=40 / radl=0 / no-intra-refresh / ctu=64 / min-cu-size=8 / rect / amp / max-tu-size=32 / tu-inter-depth=3 / tu-intra-depth=3 / limit-tu=4 / rdoq-level=1 / dynamic-rd=0.00 / no-ssim-rd / signhide / no-tskip / nr-intra=0 / nr-inter=0 / no-constrained-intra / no-strong-intra-smoothing / max-merge=3 / limit-refs=2 / limit-modes / me=3 / subme=7 / merange=57 / temporal-mvp / weightp / weightb / no-analyze-src-pics / deblock=-3:-3 / no-sao / no-sao-non-deblock / rd=4 / no-early-skip / rskip / no-fast-intra / no-tskip-fast / no-cu-lossless / no-b-intra / no-splitrd-skip / rdpenalty=0 / psy-rd=2.00 / psy-rdoq=1.00 / no-rd-refine / no-lossless / cbqpoffs=0 / crqpoffs=0 / rc=crf / crf=18.0 / qcomp=0.60 / qpstep=4 / stats-write=0 / stats-read=0 / vbv-maxrate=50000 / vbv-bufsize=50000 / vbv-init=0.9 / crf-max=0.0 / crf-min=0.0 / ipratio=1.40 / pbratio=1.30 / aq-mode=1 / aq-strength=1.00 / cutree / zone-count=0 / no-strict-cbr / qg-size=32 / no-rc-grain / qpmax=69 / qpmin=0 / no-const-vbv / sar=1 / overscan=0 / videoformat=5 / range=0 / colorprim=1 / transfer=1 / colormatrix=1 / chromaloc=0 / display-window=0 / max-cll=0,0 / min-luma=0 / max-luma=1023 / log2-max-poc-lsb=8 / vui-timing-info / vui-hrd-info / slices=1 / no-opt-qp-pps / no-opt-ref-list-length-pps / no-multi-pass-opt-rps / scenecut-bias=0.05 / no-opt-cu-delta-qp / no-aq-motion / no-hdr / no-hdr-opt / no-dhdr10-opt / no-idr-recovery-sei / analysis-reuse-level=5 / scale-factor=0 / refine-intra=0 / refine-inter=0 / refine-mv=0 / no-limit-sao / ctu-info=0 / no-lowpass-dct / refine-mv-type=0 / copy-pic=1 / max-ausize-factor=1.0 / no-dynamic-refine / no-single-sei
Language : English
Default : Yes
Forced : No
Color range : Limited
Color primaries : BT.709
Transfer characteristics : BT.709
Matrix coefficients : BT.709

Audio #1
ID : 2
Format : AC-3
Format/Info : Audio Coding 3
Codec ID : A_AC3
Duration : 1 h 43 min
Bit rate mode : Constant
Bit rate : 640 kb/s
Channel(s) : 6 channels
Channel positions : Front: L C R, Side: L R, LFE
Sampling rate : 48.0 kHz
Frame rate : 31.250 FPS (1536 SPF)
Bit depth : 16 bits
Compression mode : Lossy
Stream size : 473 MiB (8%)
Language : Russian
Service kind : Complete Main
Default : Yes
Forced : No

Audio #2
ID : 3
Format : AC-3
Format/Info : Audio Coding 3
Codec ID : A_AC3
Duration : 1 h 43 min
Bit rate mode : Constant
Bit rate : 448 kb/s
Channel(s) : 6 channels
Channel positions : Front: L C R, Side: L R, LFE
Sampling rate : 48.0 kHz
Frame rate : 31.250 FPS (1536 SPF)
Bit depth : 16 bits
Compression mode : Lossy
Stream size : 331 MiB (6%)
Language : English
Service kind : Complete Main
Default : No
Forced : No

Text #1
ID : 4
Format : UTF-8
Codec ID : S_TEXT/UTF8
Codec ID/Info : UTF-8 Plain Text
Duration : 1 h 34 min
Bit rate : 56 b/s
Count of elements : 708
Stream size : 39.0 KiB (0%)
Language : Russian
Default : No
Forced : No

Text #2
ID : 5
Format : UTF-8
Codec ID : S_TEXT/UTF8
Codec ID/Info : UTF-8 Plain Text
Duration : 1 h 32 min
Bit rate : 38 b/s
Count of elements : 687
Stream size : 25.9 KiB (0%)
Language : English
Default : No
Forced : No

Menu
00:00:00.000 : en:00:00:00.000
00:11:45.371 : en:00:11:45.371
00:18:07.753 : en:00:18:07.753
00:26:34.635 : en:00:26:34.635
00:38:04.991 : en:00:38:04.991
00:51:10.985 : en:00:51:10.985
00:59:56.968 : en:00:59:56.968
01:09:05.725 : en:01:09:05.725
01:18:46.096 : en:01:18:46.096
01:28:10.494 : en:01:28:10.494
01:35:03.197 : en:01:35:03.197




Релиз от: Cthulhu


_________________
Проголосуй за трекер Открытый торрент трекер - RUS-MEDIA.ORG

Проголосуй Открытый торрент трекер - RUS-MEDIA.ORG


Вернуться к началу
 Профиль Отправить личное сообщение  
 
   Похожие торренты   Автор   Торрент   Размер 
В этой теме нет новых непрочитанных сообщений. Повелитель зверей / The Beastmaster [Фэнтези, приключения, боевик, 1982] BDRip 1080p, Avo

salma3

0 | 0

15.88 ГБ

В этой теме нет новых непрочитанных сообщений. Последний легион / The Last Legion [фэнтези, боевик, приключения, 2007] BDRip-HEVC 1080p, Dub

salma3

23 | 6

4.68 ГБ

В этой теме нет новых непрочитанных сообщений. Варкрафт / Warcraft [Фэнтези, Боевик, Приключения, 2016] BDRip 1080p HEVC, Dub [Extended] [3D-Video]

salma3

63 | 101

9.74 ГБ

В этой теме нет новых непрочитанных сообщений. Конан-разрушитель / Conan the Destroyer [Фэнтези, боевик, приключения, 1984] BDRip-HEVC 1080p, Mvo

salma3

15 | 9

5.3 ГБ

В этой теме нет новых непрочитанных сообщений. Конан-варвар / Conan the Barbarian [Фэнтези, боевик, приключения, 2011] BDRip-HEVC 1080p, Dub

salma3

52 | 13

4.6 ГБ

В этой теме нет новых непрочитанных сообщений. Конан-варвар / Conan the Barbarian [Фэнтези, боевик, приключения, 1982] BDRip-HEVC 1080p, Dub

salma3

23 | 14

7.94 ГБ

В этой теме нет новых непрочитанных сообщений. Лара Крофт: Расхитительница гробниц / Lara Croft: Tomb Raider [фэнтези, боевик, приключения, 2001] BDRip-HEVC 1080p, Dub

salma3

0 | 0

7.31 ГБ


Начать новую тему Ответить на тему  [ 1 сообщение ] 




Для Мосгорсуда, Роскомнадзора и рекламодателей:: mosgorsud-torrent[собачка]yandex.ru
cron