Торрент файл
скачать торрент магнет ссылка Добавлен: 11 авг 2018, 12:14
Размер: 5.76 ГБ
Сидеров: 0
Личеров: 0
Статус: (salma3)
Автор

СообщениеДобавлено: 11 авг 2018, 12:14 

Не в сети
Супермодератор
Аватара пользователя
Дата регистрации:
15 фев 2012, 16:44
Возраст: 30
Спасибо: 8185 / 2148
Сообщения: 95713
Год выхода: 2018
Жанр: фантастика, боевик, комедия
Режиссер: Дэвид Литч

В ролях: Райан Рейнольдс, Джош Бролин, Морена Баккарин, Зази Битц, Брианна Хилдебранд, Брэд Питт, Билл Скарсгард, ТиДжей Миллер, Терри Крюс, Роб Делани

О фильме: Единственный и неповторимый болтливый наемник — вернулся! Ещё более масштабный, ещё более разрушительный и даже ещё более голозадый, чем прежде! Когда в его жизнь врывается суперсолдат с убийственной миссией, Дэдпул вынужден задуматься о дружбе, семье и о том, что на самом деле значит быть героем, попутно надирая 50 оттенков задниц. Потому что иногда чтобы делать хорошие вещи, нужно использовать грязные приёмчики.



Страна: США
Продолжительность: 01:59:29
Перевод: Профессиональный (полное дублирование)[Чистый звук]

Файл
Качество: BDRip 720p
Видео: AVC/H.264, 1280x536 (2.40:1), 6333 Kbps, 23.976 fps
Аудио: 48 kHz, AC3 Dolby Digital, 2/0 (L,R) ch, ~448 Kbps

Присутствуют рекламa

Код:
Общее
Уникальный идентификатор                 : 197110652642854956300661789148463485539 (0x944A217DF5F3D37B847FDED8D30FD263)
Полное имя                               : D:\Дэдпул.2.2018.BDRip.[720p].NNMClub.mkv
Формат                                   : Matroska
Версия формата                           : Version 2
Размер файла                             : 5,76 Гбайт
Продолжительность                        : 1 ч. 59 м.
Режим общего битрейта                    : Переменный
Общий поток                              : 6919 Кбит/сек
Дата кодирования                         : UTC 2018-08-10 20:16:59
Программа кодирования                    : mkvmerge v8.3.0 ('Over the Horizon') 64bit
Библиотека кодирования                   : libebml v1.3.1 + libmatroska v1.4.2

Видео
Идентификатор                            : 1
Формат                                   : AVC
Формат/Информация                        : Advanced Video Codec
Профиль формата                          :
Параметр CABAC формата                   : Да
Параметр RefFrames формата               : 4 кадра
Идентификатор кодека                     : V_MPEG4/ISO/AVC
Продолжительность                        : 1 ч. 59 м.
Вид битрейта                             : Переменный
Битрейт                                  : 6333 Кбит/сек
Максимальный битрейт                     : 7000 Кбит/сек
Ширина                                   : 1280 пикселей
Высота                                   : 536 пикселей
Соотношение сторон                       : 2,40:1
Режим частоты кадров                     : Постоянный
Частота кадров                           : 23,976 (24000/1001) кадра/сек
Стандарт вещания                         : Component
Цветовое пространство                    : YUV
Субдискретизация насыщенности            : 4:2:0
Битовая глубина                          : 8 бит
Тип развёртки                            : Прогрессивная
Бит/(Пиксели*Кадры)                      : 0.385
Размер потока                            : 5,27 Гбайт (92%)
Язык                                     : English
Default                                  : Да
Forced                                   : Нет
Цветовой диапазон                        : Limited
Основные цвета                           : BT.709
Характеристики трансфера                 : BT.709
Коэффициенты матрицы                     : BT.709

Аудио
Идентификатор                            : 2
Формат                                   : AC-3
Формат/Информация                        : Audio Coding 3
Параметр Endianness формата              : Big
Идентификатор кодека                     : A_AC3
Продолжительность                        : 1 ч. 59 м.
Вид битрейта                             : Постоянный
Битрейт                                  : 448 Кбит/сек
Каналы                                   : 2 канала
Расположение каналов                     : Front: L R
Частота                                  : 48,0 КГц
Частота кадров                           : 31,250 кадров/сек (1536 SPF)
Битовая глубина                          : 16 бит
Метод сжатия                             : С потерями
Размер потока                            : 382 Мбайт (6%)
Язык                                     : Russian
ServiceKind/String                       : Complete Main
Default                                  : Да
Forced                                   : Нет



_________________
Проголосуй за трекер Открытый торрент трекер - RUS-MEDIA.ORG

Проголосуй Открытый торрент трекер - RUS-MEDIA.ORG


Скачать книги и аудио книги через торрент


Вернуться к началу
 Профиль Отправить личное сообщение  
 
   Похожие торренты   Автор   Торрент   Размер 
В этой теме нет новых непрочитанных сообщений. Дэдпул 2 / Deadpool 2 [фантастика, боевик, комедия, 2018] HDRip, Dub [Чистый звук]

salma3

1 | 2

1.32 ГБ

В этой теме нет новых непрочитанных сообщений. Дэдпул 2 / Deadpool 2 [Фантастика, боевик, комедия, 2018] BDRip 720p, Dub [Расширенная версия] [Лицензия]

salma3

0 | 0

9.09 ГБ

В этой теме нет новых непрочитанных сообщений. Жил-был Дэдпул / Once Upon A Deadpool [Комедия, боевик, фантастика, 2018] BDRip 720p, Dub [iTunes]

salma3

0 | 1

5.78 ГБ

В этой теме нет новых непрочитанных сообщений. Дэдпул 2 / Deadpool 2 [Фантастика, боевик, комедия, 2018] WEBRip 720p, Dub [TS]

salma3

552 | 304

3.38 ГБ

В этой теме нет новых непрочитанных сообщений. Дэдпул 2 / Deadpool 2 [фантастика, боевик, комедия, 2018] TS *PROPER* 720p, Dub

salma3

2514 | 293

2.83 ГБ

В этой теме нет новых непрочитанных сообщений. Жил-был Дэдпул / Once Upon A Deadpool [Комедия, боевик, фантастика, 2018] BDRip, Dub [iTunes]

salma3

0 | 0

2.13 ГБ

В этой теме нет новых непрочитанных сообщений. Дэдпул 2 / Deadpool 2 [Фантастика, боевик, комедия, 2018] BDRip, Dub [Расширенная версия] [Лицензия]

salma3

0 | 0

1.46 ГБ


Начать новую тему Ответить на тему  [ 1 сообщение ] 




Для Мосгорсуда, Роскомнадзора и рекламодателей:: mosgorsud-torrent[собачка]yandex.ru
cron