Торрент файл
скачать торрент магнет ссылка Добавлен: 04 авг 2018, 20:52
Размер: 7.93 ГБ
Сидеров: 0
Личеров: 0
Статус: (salma3)
Автор

СообщениеДобавлено: 04 авг 2018, 20:52 

Не в сети
Супермодератор
Аватара пользователя
Дата регистрации:
15 фев 2012, 16:44
Возраст: 29
Спасибо: 7333 / 2147
Сообщения: 73912
Год выхода: 1989
Жанр: ужасы
Режиссер: Монте Хеллман

В ролях: Саманта Скалли, Билл Моусли, Ричард С. Адамс, Ричард Беймер, Мелисса Хеллман, Изабель Кули, Эрик ДаРе, Леонард Манн, Лора Хэрринг, Элизабет Хоффман, Карлос Паломино

О фильме: Фильм начинается со сна слепой девушки Лауры Андерсон, которой снится, как Рикки убивает ее. Оказывается, она телепатически связана с ним. Рикки Колдуэлл долгое время был в коме, но когда получил мозговые сигналы от Лауры, то возвратился к жизни. Рикки убегает из госпиталя и отправляется на поиски Лауры, попутно убивая других людей…



Страна: США
Продолжительность: 01:29:56
Перевод: Авторский (одноголосый закадровый) Юрий Живов

Файл
Качество: WEB-DL 1080p | Amazon
Видео: MPEG-4 AVC, 12200 kbps, 1920x1080, 23.976 fps
Аудио 1: Russian, AC3, 48.0 KHz, 2ch, 192 kbps | Юрий Живов
Аудио 2: English, EAC3, 48.0 KHz, 2ch, 224 kbps
Субтитры: английские

General
Unique ID : 325812319736081227707126418588853082617 (0xF51D2B97AAA693FABB1079DDCBA419F9)
Complete name : Silent.Night.Deadly.Night.3.Better.Watch.Out.1989.WEB-DL.1080p.mkv
Format : Matroska
Format version : Version 4 / Version 2
File size : 7.93 GiB
Duration : 1 h 29 min
Overall bit rate mode : Variable
Overall bit rate : 12.6 Mb/s
Encoded date : UTC 2018-07-26 07:12:10
Writing application : mkvmerge v25.0.0 ('Prog Noir') 64-bit
Writing library : libebml v1.3.6 + libmatroska v1.4.9

Video
ID : 1
Format : AVC
Format/Info : Advanced Video Codec
Format profile : High@L4
Format settings : CABAC / 4 Ref Frames
Format settings, CABAC : Yes
Format settings, ReFrames : 4 frames
Codec ID : V_MPEG4/ISO/AVC
Duration : 1 h 29 min
Bit rate mode : Variable
Bit rate : 12.2 Mb/s
Maximum bit rate : 15.0 Mb/s
Width : 1 920 pixels
Height : 1 080 pixels
Display aspect ratio : 16:9
Frame rate mode : Constant
Frame rate : 23.976 (24000/1001) FPS
Color space : YUV
Chroma subsampling : 4:2:0
Bit depth : 8 bits
Scan type : Progressive
Bits/(Pixel*Frame) : 0.245
Stream size : 7.67 GiB (97%)
Title : Silent.Night.Deadly.Night.3.Better.Watch.Out.1989.1080p.Amazon.WEB-DL.DD+2.0.H.264-QOQ
Language : English
Default : Yes
Forced : No
Color range : Limited
Color primaries : BT.709
Transfer characteristics : BT.709
Matrix coefficients : BT.709

Audio #1
ID : 2
Format : AC-3
Format/Info : Audio Coding 3
Codec ID : A_AC3
Duration : 1 h 29 min
Bit rate mode : Constant
Bit rate : 192 kb/s
Channel(s) : 2 channels
Channel positions : Front: L R
Sampling rate : 48.0 kHz
Frame rate : 31.250 FPS (1536 SPF)
Bit depth : 16 bits
Compression mode : Lossy
Stream size : 124 MiB (2%)
Title : AVO Живов
Language : Russian
Service kind : Complete Main
Default : Yes
Forced : No

Audio #2
ID : 3
Format : E-AC-3
Format/Info : Enhanced Audio Coding 3
Codec ID : A_EAC3
Duration : 1 h 29 min
Bit rate mode : Constant
Bit rate : 224 kb/s
Channel(s) : 2 channels
Channel positions : Front: L R
Sampling rate : 48.0 kHz
Frame rate : 187.500 FPS (256 SPF)
Compression mode : Lossy
Stream size : 144 MiB (2%)
Title : Original
Language : English
Service kind : Complete Main
Default : No
Forced : No

Text
ID : 4
Format : UTF-8
Codec ID : S_TEXT/UTF8
Codec ID/Info : UTF-8 Plain Text
Duration : 1 h 27 min
Bit rate : 38 b/s
Count of elements : 992
Stream size : 25.0 KiB (0%)
Language : English
Default : No
Forced : No


_________________
Проголосуй за трекер Открытый торрент трекер - RUS-MEDIA.ORG

Проголосуй Открытый торрент трекер - RUS-MEDIA.ORG


Вернуться к началу
 Профиль Отправить личное сообщение  
 
   Похожие торренты   Автор   Торрент   Размер 
В этой теме нет новых непрочитанных сообщений. Инициация: Тихая ночь, смертельная ночь 4 / Initiation: Silent Night, Deadly Night 4 [ужасы, 1990] WEB-DL 1080p, Avo

salma3

0 | 0

4.67 ГБ

В этой теме нет новых непрочитанных сообщений. Тихая ночь, смертельная ночь 5: Создатель игрушек / Silent Night, Deadly Night 5: The Toy Maker [ужасы, фантастика, 1991] WEB-DL 1080p, Avo

salma3

0 | 0

5.07 ГБ

В этой теме нет новых непрочитанных сообщений. Тихая ночь, смертельная ночь / Silent Night, Deadly Night [ужасы, триллер, слэшер, 1984] BDRip 720p, Avo

salma3

9 | 4

3.6 ГБ

В этой теме нет новых непрочитанных сообщений. Инициация: Тихая ночь, смертельная ночь 4 / Initiation: Silent Night, Deadly Night 4 [ужасы, триллер, 1990] DVDRip, Avo

salma3

127 | 304

1.37 ГБ

В этой теме нет новых непрочитанных сообщений. Смертельная ночь / Dead Night [Ужасы, 2017] WEBRip, Dvo

salma3

0 | 0

1.24 ГБ

В этой теме нет новых непрочитанных сообщений. Смертельная ночь / Dead Night [Ужасы, 2017] WEBRip 720p, Dvo

salma3

0 | 1

1.94 ГБ

В этой теме нет новых непрочитанных сообщений. Странная ночь / Ночь странных вещей / Странная ночь Night of Something Strange [ужасы, комедия, 2016] HDRip, Avo

salma3

161 | 138

755.3 МБ


Начать новую тему Ответить на тему  [ 1 сообщение ] 




Для Мосгорсуда, Роскомнадзора и рекламодателей:: mosgorsud-torrent[собачка]yandex.ru
cron