COVID-19 - Последняя информация о коронавирусе на сайте Минздрава




Торрент файл
скачать торрент магнет ссылка Добавлен: 04 авг 2018, 20:50
Размер: 4.67 ГБ
Сидеров: 0
Личеров: 0
Статус: (salma3)
Автор

СообщениеДобавлено: 04 авг 2018, 20:50 

Не в сети
Супермодератор
Аватара пользователя
Дата регистрации:
15 фев 2012, 16:44
Возраст: 31
Спасибо: 8278 / 2148
Сообщения: 96637
Год выхода: 1990
Жанр: ужасы
Режиссер: Брайан Юзна

В ролях: Клинт Ховард, Нейт Хантер, Томми Хинкли, Хью Финк, Ричард Н. Гладштейн, Рэджи Бэннистер, Эллис Бисли, Глен Чин, Мод Адамс, Джинн Бейтс

О фильме: Фильм начинается с того, что женщина падает с крыши книжного магазина, объятого пламенем. Ким, которая хочет найти сенсационную историю, чтобы стать репортером, видит это событие в телевизионных новостях. Она начинает расследование причин этого происшествия…



Страна: США
Продолжительность: 01:27:06
Перевод: Авторский (одноголосый закадровый) Юрий Живов

Файл
Качество: WEB-DL 1080p | Amazon
Видео: MPEG-4 AVC, 7254 kbps, 1920x1080, 23.976 fps
Аудио 1: Russian, AC3, 48.0 KHz, 2ch, 192 kbps | Юрий Живов
Аудио 2: English, EAC3, 48.0 KHz, 2ch, 224 kbps
Субтитры: английские

General
Unique ID : 278314248903084238279043774039991246156 (0xD1615FE535A107E68CE0A5637ACBDD4C)
Complete name : Silent.Night.Deadly.Night.4.Initiation.1990.WEB-DL.1080p.mkv
Format : Matroska
Format version : Version 4 / Version 2
File size : 4.67 GiB
Duration : 1 h 27 min
Overall bit rate mode : Variable
Overall bit rate : 7 672 kb/s
Encoded date : UTC 2018-07-26 07:20:41
Writing application : mkvmerge v25.0.0 ('Prog Noir') 64-bit
Writing library : libebml v1.3.6 + libmatroska v1.4.9

Video
ID : 1
Format : AVC
Format/Info : Advanced Video Codec
Format profile : High@L4
Format settings : CABAC / 4 Ref Frames
Format settings, CABAC : Yes
Format settings, ReFrames : 4 frames
Codec ID : V_MPEG4/ISO/AVC
Duration : 1 h 27 min
Bit rate mode : Variable
Bit rate : 7 254 kb/s
Maximum bit rate : 15.0 Mb/s
Width : 1 920 pixels
Height : 1 080 pixels
Display aspect ratio : 16:9
Frame rate mode : Constant
Frame rate : 23.976 (24000/1001) FPS
Color space : YUV
Chroma subsampling : 4:2:0
Bit depth : 8 bits
Scan type : Progressive
Bits/(Pixel*Frame) : 0.146
Stream size : 4.41 GiB (95%)
Title : Silent.Night.Deadly.Night.4.Initiation.1990.1080p.Amazon.WEB-DL.DD+2.0.H.264-QOQ
Language : English
Default : Yes
Forced : No
Color range : Limited
Color primaries : BT.709
Transfer characteristics : BT.709
Matrix coefficients : BT.709

Audio #1
ID : 2
Format : AC-3
Format/Info : Audio Coding 3
Codec ID : A_AC3
Duration : 1 h 27 min
Bit rate mode : Constant
Bit rate : 192 kb/s
Channel(s) : 2 channels
Channel positions : Front: L R
Sampling rate : 48.0 kHz
Frame rate : 31.250 FPS (1536 SPF)
Bit depth : 16 bits
Compression mode : Lossy
Stream size : 120 MiB (3%)
Title : AVO Живов
Language : Russian
Service kind : Complete Main
Default : Yes
Forced : No

Audio #2
ID : 3
Format : E-AC-3
Format/Info : Enhanced Audio Coding 3
Codec ID : A_EAC3
Duration : 1 h 27 min
Bit rate mode : Constant
Bit rate : 224 kb/s
Channel(s) : 2 channels
Channel positions : Front: L R
Sampling rate : 48.0 kHz
Frame rate : 187.500 FPS (256 SPF)
Compression mode : Lossy
Stream size : 140 MiB (3%)
Title : Original
Language : English
Service kind : Complete Main
Default : No
Forced : No

Text
ID : 4
Format : UTF-8
Codec ID : S_TEXT/UTF8
Codec ID/Info : UTF-8 Plain Text
Duration : 1 h 25 min
Bit rate : 36 b/s
Count of elements : 946
Stream size : 23.1 KiB (0%)
Language : English
Default : No
Forced : No


_________________
Проголосуй за трекер Открытый торрент трекер - RUS-MEDIA.ORG

Проголосуй Открытый торрент трекер - RUS-MEDIA.ORG


Скачать книги и аудио книги через торрент


Вернуться к началу
 Профиль Отправить личное сообщение  
 
   Похожие торренты   Автор   Торрент   Размер 
В этой теме нет новых непрочитанных сообщений. Тихая ночь, смертельная ночь 3: Лучше поберегись! / Silent Night, Deadly Night 3: Better Watch Out! [ужасы, 1989] WEB-DL 1080p, Avo

salma3

0 | 0

7.93 ГБ

В этой теме нет новых непрочитанных сообщений. Тихая ночь, смертельная ночь 5: Создатель игрушек / Silent Night, Deadly Night 5: The Toy Maker [ужасы, фантастика, 1991] WEB-DL 1080p, Avo

salma3

0 | 0

5.07 ГБ

В этой теме нет новых непрочитанных сообщений. Тихая ночь, смертельная ночь / Silent Night, Deadly Night [ужасы, слэшер, 1984] BDRemux 1080p, Avo

salma3

0 | 0

17.58 ГБ

В этой теме нет новых непрочитанных сообщений. Тихая ночь, смертельная ночь 2 / Silent Night, Deadly Night 2 [ужасы, триллер, 1987] BDRip 720р, Avo

salma3

0 | 0

3.32 ГБ

В этой теме нет новых непрочитанных сообщений. Неудачная ночь / Ночь накануне Хэллоуина / Mischief Night / The Night Before Halloween [ужасы, триллер, драма, 2013] BDRip 1080p, Avo

salma3

0 | 0

5.61 ГБ

В этой теме нет новых непрочитанных сообщений. Ночь живых мертвецов / Night Of The Living Dead [Ужасы, 1990] BDRip-AVC, Avo

salma3

2 | 6

1.87 ГБ

В этой теме нет новых непрочитанных сообщений. Смертельная ночь / Dead Night [Ужасы, 2017] WEBRip, Dvo

salma3

0 | 0

1.24 ГБ


Начать новую тему Ответить на тему  [ 1 сообщение ] 




Для Мосгорсуда, Роскомнадзора и рекламодателей:: rstracker[собака]yandex.ru
cron