COVID-19 - Последняя информация о коронавирусе на сайте Минздрава




Торрент файл
скачать торрент магнет ссылка Добавлен: 04 авг 2018, 17:02
Размер: 13.85 ГБ
Сидеров: 0
Личеров: 0
Статус: (salma3)
Автор

СообщениеДобавлено: 04 авг 2018, 17:02 

Не в сети
Супермодератор
Аватара пользователя
Дата регистрации:
15 фев 2012, 16:44
Возраст: 31
Спасибо: 8280 / 2148
Сообщения: 96711
Год выхода: 1961
Жанр: мелодрама, комедия, семейный
Режиссер: Дэвид Свифт

В ролях: Хейли Миллс, Морин О`Хара, Брайан Кит, Кэтлин Несбит, Чарльз Рагглз, Уна Меркель, Джоанна Барнс, Линда Уоткинс, Рут МакДевитт

О фильме:
Две девочки-двойняшки, похожие друг на друга, как две капли воды добиваются того, чтобы их разведенные родители соединились вновь после 14 лет развода. До этого моменты сестры были разлучены, не зная того. Но они случайно встречаются в летнем лагере.



Страна: США
Продолжительность: 02:09:08
Перевод: Перевод: Профессиональный многоголосый, закадровый (НТВ+) + Любительский одноголосый, закадровый

Файл
Качество: WEB-DL 1080p
Видео: AVC/H.264, 1920х1080, ~14.0 Mbps
Аудио: 1 AC3, 2 ch, 192 kbps - Русский многоголосый (НТВ+)
Аудио: 2 AC3, 6 ch, 448 kbps - Русский одноголосый (kot.karakot)
Аудио: 3 AC3, 6 ch, 448 kbps - Английский оригинальный

Complete name : H:The Parent Trap.(1961).WEBRip.1080p.mkv
Format : Matroska
Format version : Version 2
File size : 13.9 GiB
Duration : 2 h 9 min
Overall bit rate mode : Variable
Overall bit rate : 15.4 Mb/s
Movie name : The Parent Trap.(1961).WEBRip.1080p
Encoded date : UTC 2017-02-12 15:30:00
Writing application : mkvmerge v5.8.0 ('No Sleep / Pillow') built on Sep 2 2012 15:37:04
Writing library : libebml v1.2.3 + libmatroska v1.3.0

Video
ID : 1
Format : AVC
Format/Info : Advanced Video Codec
Format profile : High@L4
Format settings, CABAC : Yes
Format settings, ReFrames : 4 frames
Codec ID : V_MPEG4/ISO/AVC
Duration : 2 h 9 min
Bit rate mode : Variable
Bit rate : 14.0 Mb/s
Maximum bit rate : 15.0 Mb/s
Width : 1 920 pixels
Height : 1 080 pixels
Display aspect ratio : 16:9
Frame rate mode : Constant
Frame rate : 23.976 (24000/1001) FPS
Color space : YUV
Chroma subsampling : 4:2:0
Bit depth : 8 bits
Scan type : Progressive
Bits/(Pixel*Frame) : 0.281
Stream size : 12.6 GiB (91%)
Title : The Parent Trap.(1961).WEBRip.1080p
Writing library : x264 core 148 r2623 d5b2374
Encoding settings : cabac=1 / ref=4 / deblock=1:-1:-1 / analyse=0x3:0x133 / me=umh / subme=9 / psy=1 / psy_rd=1.00:0.15 / mixed_ref=1 / me_range=24 / chroma_me=1 / trellis=2 / 8x8dct=1 / cqm=0 / deadzone=21,11 / fast_pskip=1 / chroma_qp_offset=-3 / threads=34 / lookahead_threads=5 / sliced_threads=0 / nr=150 / decimate=1 / interlaced=0 / bluray_compat=0 / constrained_intra=0 / bframes=8 / b_pyramid=2 / b_adapt=2 / b_bias=0 / direct=3 / weightb=1 / open_gop=0 / weightp=2 / keyint=120 / keyint_min=61 / scenecut=0 / intra_refresh=0 / rc_lookahead=120 / rc=crf / mbtree=1 / crf=18.0 / qcomp=0.60 / qpmin=0 / qpmax=69 / qpstep=4 / vbv_maxrate=15000 / vbv_bufsize=31250 / crf_max=0.0 / nal_hrd=vbr / filler=0 / ip_ratio=1.40 / aq=3:1.00
Language : English
Default : Yes
Forced : No
Color range : Limited
Color primaries : BT.709
Transfer characteristics : BT.709
Matrix coefficients : BT.709

Audio #1
ID : 2
Format : AC-3
Format/Info : Audio Coding 3
Mode extension : CM (complete main)
Format settings, Endianness : Big
Codec ID : A_AC3
Duration : 2 h 9 min
Bit rate mode : Constant
Bit rate : 192 kb/s
Channel(s) : 2 channels
Channel positions : Front: L R
Sampling rate : 48.0 kHz
Frame rate : 31.250 FPS (1536 spf)
Bit depth : 16 bits
Compression mode : Lossy
Stream size : 177 MiB (1%)
Title : AC3 2.0 @ 192 kbps - MVO, НТВ+
Language : Russian
Default : Yes
Forced : No

Audio #2
ID : 3
Format : AC-3
Format/Info : Audio Coding 3
Mode extension : CM (complete main)
Format settings, Endianness : Big
Codec ID : A_AC3
Duration : 2 h 9 min
Bit rate mode : Constant
Bit rate : 448 kb/s
Channel(s) : 6 channels
Channel positions : Front: L C R, Side: L R, LFE
Sampling rate : 48.0 kHz
Frame rate : 31.250 FPS (1536 spf)
Bit depth : 16 bits
Compression mode : Lossy
Stream size : 414 MiB (3%)
Title : AC3 5.1 @ 448 kbps - AVO, kot.karakot
Language : Russian
Default : No
Forced : No

Audio #3
ID : 4
Format : AC-3
Format/Info : Audio Coding 3
Mode extension : CM (complete main)
Format settings, Endianness : Big
Codec ID : A_AC3
Duration : 2 h 9 min
Bit rate mode : Constant
Bit rate : 448 kb/s
Channel(s) : 6 channels
Channel positions : Front: L C R, Side: L R, LFE
Sampling rate : 48.0 kHz
Frame rate : 31.250 FPS (1536 spf)
Bit depth : 16 bits
Compression mode : Lossy
Stream size : 414 MiB (3%)
Title : AC3 5.1 @ 448 kbps - Original
Language : English
Default : No
Forced : No

Text
ID : 5
Format : UTF-8
Codec ID : S_TEXT/UTF8
Codec ID/Info : UTF-8 Plain Text
Language : English
Default : No
Forced : No


_________________
Проголосуй за трекер Открытый торрент трекер - RUS-MEDIA.ORG

Проголосуй Открытый торрент трекер - RUS-MEDIA.ORG


Скачать книги и аудио книги через торрент


Вернуться к началу
 Профиль Отправить личное сообщение  
 
   Похожие торренты   Автор   Торрент   Размер 
В этой теме нет новых непрочитанных сообщений. Ловушка для родителей / The Parent Trap [мелодрама, комедия, семейный, 1961] BDRemux 1080p, Mvo

salma3

0 | 0

29.89 ГБ

В этой теме нет новых непрочитанных сообщений. Ловушка для родителей / The Parent Trap [мелодрама, комедия, семейный, 1961] BDRip, Mvo

salma3

0 | 0

2.18 ГБ

В этой теме нет новых непрочитанных сообщений. Ловушка для родителей / The Parent Trap [драма, мелодрама, комедия, 1998] WEB-DL 1080p, Mvo

salma3

0 | 0

12.9 ГБ

В этой теме нет новых непрочитанных сообщений. Ловушка для родителей / The Parent Trap [комедия, приключения, семейный, 1998] HDRip-AVC, Mvo

salma3

1 | 1

744.57 МБ

В этой теме нет новых непрочитанных сообщений. Ловушка для родителей / The Parent Trap [драма, мелодрама, комедия, 1998] BDRip 720p, Mvo

salma3

0 | 0

6.52 ГБ

В этой теме нет новых непрочитанных сообщений. Западня / The Trap [комедия, 2019] WEB-DL 1080p, Mvo

salma3

16 | 8

3.74 ГБ

В этой теме нет новых непрочитанных сообщений. Ловушка времени / Time Trap [фантастика, боевик, приключения, 2017] WEBDLRip, Mvo

salma3

249 | 39

1.37 ГБ


Начать новую тему Ответить на тему  [ 1 сообщение ] 




Для Мосгорсуда, Роскомнадзора и рекламодателей:: rstracker[собака]yandex.ru
cron
cron