COVID-19 - Последняя информация о коронавирусе на сайте Минздрава




Торрент файл
скачать торрент магнет ссылка Добавлен: 03 авг 2018, 20:58
Размер: 6.52 ГБ
Сидеров: 0
Личеров: 0
Статус: (salma3)
Автор

СообщениеДобавлено: 03 авг 2018, 20:58 

Не в сети
Супермодератор
Аватара пользователя
Дата регистрации:
15 фев 2012, 16:44
Возраст: 31
Спасибо: 8280 / 2148
Сообщения: 96711
Год выпуска: 1998
Жанр: драма, мелодрама, комедия
Режиссер: Нэнси Майерс

В ролях: Линдси Лохан (Hallie Parker / Annie James), Деннис Куэйд (Nick Parker), Наташа Ричардсон (Elizabeth James), Элэйн Хендрикс (Meredith Blake), Лиза Энн Уолтер (Chessy), Саймон Кунц (Martin),

О фильме: Юная Холли Паркер живет в солнечной Калифорнии с самым замечательным отцом на свете, а ее ровесница Энни Джеймс — в туманном Лондоне с прекрасной любящей матерью. Первая мечтает о маме, без которой ей очень тяжело, а второй так хочется, чтобы у нее был папа. Когда девочки случайно встречаются в летнем лагере, им есть, чем поделиться друг с другом. Но помимо общих горестей между Холли и Энни существует еще одно сходство: они… близнецы! Их родители развелись много лет назад, и девочки решают исправить эту трагическую ошибку. Сестрички начинают действовать: американка возвращается в Лондон, а англичанка в Америку. И ничего не подозревающие родители легко попадают в ловушку…



Страна: США
Продолжительность: 02:08:07
Перевод: Профессиональный (многоголосый, закадровый), Авторский (одноголосый, закадровый)

Файл
Качество: BDRip 720p
Формат: Matroska
Видео: 1280x696 at 23.976 fps, x264, ~6000 kbps avg
Аудио#1: Russian: 48 kHz, AC3, 2/0 (L,R) ch, ~192 kbps avg |Многоголосый закадровый, СТС|
Аудио#2: Russian: 48 kHz, AC3, 2/0 (L,R) ch, ~192 kbps avg |Многоголосый закадровый, Видеосервис|
Аудио#3: Russian: 48 kHz, AC3, 3/2 (L,C,R,l,r) + LFE ch, ~448 kbps avg |Авторский, С.Визгунов|
Аудио#4: English: 48 kHz, AC3, 3/2 (L,C,R,l,r) + LFE ch, ~448 kbps avg
Субтитры: Russian, English
***Сохранены оригинальные главы как на Blu-ray.
***Релиз: Topmost.
В основе сюжета лежит произведение немецкого писателя Эриха Кёстнера «Двойная Лоттхен» (Das doppelte Lottchen).
Первоначально, близнецов должна была играть Мишель Трахтенберг. По совпадению, её день рождения 11 октября, в тот же день, как и у Холли и Энни.
Потерявшегося в лагере мальчика играет Майкл Лохан, родной брат Линдси.
Когда в фильме Холли прилетает в лондонский аэропорт, в толпе можно увидеть мать Линдси — Дину Лохан, держащую на руках брата Линдси, Дакоту Лохан.
Имена близнецов в фильме выбраны неслучайно. Дочерей режиссера фильма Нэнси Майерс и продюсера Чарльза Шайера зовут Анни и Холли Мейерс-Шайер. Обе девочки сыграли в фильме небольшие роли.
[*]Когда Холли идёт с матерью в свадебную студию и они пересекают проезжую часть, сцена явно напоминает обложку альбома The Beatles «Abbey Road». В это же время звучит песня «Here Comes the Sun».
Общее
Уникальный идентификатор : 178482056607773091382516821334065767063 (0x864664CBDC6DE80DB2346AD1046D6297)
Полное имя : Ловушка для родителей. 1998 BDRip 720p.mkv
Формат : Matroska
Версия формата : Version 4 / Version 2
Размер файла : 6,52 Гбайт
Продолжительность : 2 ч. 8 м.
Общий поток : 7283 Кбит/сек
Название фильма : Release for Topmost
Дата кодирования : UTC 2018-08-03 12:28:06
Программа кодирования : mkvmerge v6.2.0 ('Promised Land') built on Apr 28 2013 12:22:01
Библиотека кодирования : libebml v1.3.0 + libmatroska v1.4.0
Attachment : Yes

Видео
Идентификатор : 1
Формат : AVC
Формат/Информация : Advanced Video Codec
Профиль формата : High@L4.1
Параметр CABAC формата : Да
Параметр ReFrames формата : 9 кадров
Идентификатор кодека : V_MPEG4/ISO/AVC
Продолжительность : 2 ч. 8 м.
Битрейт : 6000 Кбит/сек
Ширина : 1280 пикселей
Высота : 696 пикселей
Соотношение сторон : 1,85:1
Режим частоты кадров : Постоянный
Частота кадров : 23,976 кадра/сек
Цветовое пространство : YUV
Субдискретизация насыщенности : 4:2:0
Битовая глубина : 8 бит
Тип развёртки : Прогрессивная
Бит/(Пиксели*Кадры) : 0.281
Размер потока : 5,24 Гбайт (80%)
Заголовок : Ловушка для родителейю 1998 (Release for Topmost)
Библиотека кодирования : x264 core 146 r2538 121396c
Настройки программы : cabac=1 / ref=9 / deblock=1:-3:-3 / analyse=0x3:0x113 / me=umh / subme=11 / psy=1 / psy_rd=1.00:0.15 / mixed_ref=1 / me_range=32 / chroma_me=1 / trellis=2 / 8x8dct=1 / cqm=0 / deadzone=21,11 / fast_pskip=0 / chroma_qp_offset=-3 / threads=12 / lookahead_threads=2 / sliced_threads=0 / nr=0 / decimate=0 / interlaced=0 / bluray_compat=0 / constrained_intra=0 / bframes=8 / b_pyramid=2 / b_adapt=2 / b_bias=0 / direct=3 / weightb=1 / open_gop=0 / weightp=2 / keyint=240 / keyint_min=23 / scenecut=40 / intra_refresh=0 / rc_lookahead=40 / rc=2pass / mbtree=1 / bitrate=6000 / ratetol=1.0 / qcomp=0.60 / qpmin=0 / qpmax=69 / qpstep=4 / cplxblur=20.0 / qblur=0.5 / ip_ratio=1.40 / aq=1:0.90
Язык : English
Default : Да
Forced : Нет

Аудио #1
Идентификатор : 2
Формат : AC-3
Формат/Информация : Audio Coding 3
Расширение режима : CM (complete main)
Параметр Endianness формата : Big
Идентификатор кодека : A_AC3
Продолжительность : 2 ч. 8 м.
Вид битрейта : Постоянный
Битрейт : 192 Кбит/сек
Каналы : 2 канала
Расположение каналов : Front: L R
Частота : 48,0 КГц
Битовая глубина : 16 бит
Метод сжатия : С потерями
Размер потока : 176 Мбайт (3%)
Заголовок : AC3, 2 ch, 192 kbps - MVO (СТС)
Язык : Russian
Default : Да
Forced : Нет

Аудио #2
Идентификатор : 3
Формат : AC-3
Формат/Информация : Audio Coding 3
Расширение режима : CM (complete main)
Параметр Endianness формата : Big
Идентификатор кодека : A_AC3
Продолжительность : 2 ч. 8 м.
Вид битрейта : Постоянный
Битрейт : 192 Кбит/сек
Каналы : 2 канала
Расположение каналов : Front: L R
Частота : 48,0 КГц
Битовая глубина : 16 бит
Метод сжатия : С потерями
Размер потока : 176 Мбайт (3%)
Заголовок : AC3, 2 ch, 192 kbps - MVO (Видеосервис)
Язык : Russian
Default : Нет
Forced : Нет

Аудио #3
Идентификатор : 4
Формат : AC-3
Формат/Информация : Audio Coding 3
Расширение режима : CM (complete main)
Параметр Endianness формата : Big
Идентификатор кодека : A_AC3
Продолжительность : 2 ч. 8 м.
Вид битрейта : Постоянный
Битрейт : 448 Кбит/сек
Каналы : 6 каналов
Расположение каналов : Front: L C R, Side: L R, LFE
Частота : 48,0 КГц
Битовая глубина : 16 бит
Метод сжатия : С потерями
Размер потока : 411 Мбайт (6%)
Заголовок : AC3, 6 ch, 448 kbps - AVO (Визгунов)
Язык : Russian
Default : Нет
Forced : Нет

Аудио #4
Идентификатор : 5
Формат : AC-3
Формат/Информация : Audio Coding 3
Расширение режима : CM (complete main)
Параметр Endianness формата : Big
Идентификатор кодека : A_AC3
Продолжительность : 2 ч. 8 м.
Вид битрейта : Постоянный
Битрейт : 448 Кбит/сек
Каналы : 6 каналов
Расположение каналов : Front: L C R, Side: L R, LFE
Частота : 48,0 КГц
Битовая глубина : 16 бит
Метод сжатия : С потерями
Размер потока : 411 Мбайт (6%)
Заголовок : AC3, 6 ch, 448 kbps - Original
Язык : English
Default : Нет
Forced : Нет

Текст #1
Идентификатор : 6
Формат : UTF-8
Идентификатор кодека : S_TEXT/UTF8
Идентификатор кодека/Информация : UTF-8 Plain Text
Язык : Russian
Default : Нет
Forced : Нет

Текст #2
Идентификатор : 7
Формат : UTF-8
Идентификатор кодека : S_TEXT/UTF8
Идентификатор кодека/Информация : UTF-8 Plain Text
Язык : English
Default : Нет
Forced : Нет

Меню
00:00:00.000 : en:1
00:03:29.000 : en:2
00:12:07.000 : en:3
00:21:25.000 : en:4
00:28:03.000 : en:5
00:37:24.000 : en:6
00:45:08.000 : en:7
01:07:38.000 : en:8
01:18:34.000 : en:9
01:23:09.000 : en:10
01:35:42.000 : en:11
01:44:49.000 : en:12
01:54:58.000 : en:13
02:02:24.000 : en:14


_________________
Проголосуй за трекер Открытый торрент трекер - RUS-MEDIA.ORG

Проголосуй Открытый торрент трекер - RUS-MEDIA.ORG


Скачать книги и аудио книги через торрент


Вернуться к началу
 Профиль Отправить личное сообщение  
 
   Похожие торренты   Автор   Торрент   Размер 
В этой теме нет новых непрочитанных сообщений. Ловушка для родителей / The Parent Trap [драма, мелодрама, комедия, 1998] WEB-DL 1080p, Mvo

salma3

0 | 0

12.9 ГБ

В этой теме нет новых непрочитанных сообщений. Ловушка для родителей / The Parent Trap [мелодрама, комедия, семейный, 1961] BDRip, Mvo

salma3

0 | 0

2.18 ГБ

В этой теме нет новых непрочитанных сообщений. Ловушка для родителей / The Parent Trap [комедия, приключения, семейный, 1998] HDRip-AVC, Mvo

salma3

1 | 1

744.57 МБ

В этой теме нет новых непрочитанных сообщений. Ловушка для родителей / The Parent Trap [мелодрама, комедия, семейный, 1961] WEB-DL 1080p, Mvo

salma3

0 | 0

13.85 ГБ

В этой теме нет новых непрочитанных сообщений. Ловушка для родителей / The Parent Trap [мелодрама, комедия, семейный, 1961] BDRemux 1080p, Mvo

salma3

0 | 0

29.89 ГБ

В этой теме нет новых непрочитанных сообщений. Ловушка времени / Time Trap [Фантастика, боевик, приключения, 2017] HDRip, Mvo

salma3

1002 | 272

1.46 ГБ

В этой теме нет новых непрочитанных сообщений. Ловушка времени / Time Trap [фантастика, боевик, приключения, 2017] WEBDLRip, Mvo

salma3

249 | 39

1.37 ГБ


Начать новую тему Ответить на тему  [ 1 сообщение ] 




Для Мосгорсуда, Роскомнадзора и рекламодателей:: rstracker[собака]yandex.ru
cron
cron