Торрент файл
скачать торрент магнет ссылка Добавлен: 02 авг 2018, 20:39
Размер: 5.96 ГБ
Сидеров: 0
Личеров: 0
Статус: (salma3)
Автор

СообщениеДобавлено: 02 авг 2018, 20:39 

Не в сети
Супермодератор
Аватара пользователя
Дата регистрации:
15 фев 2012, 16:44
Возраст: 29
Спасибо: 8001 / 2147
Сообщения: 89005
Год выпуска: 2000
Жанр: детектив, триллер, драма
Режиссер: Стивен Хопкинс

В ролях: Джин Хэкмен, Морган Фриман, Томас Джейн, Моника Беллуччи, Нидия Каро, Мигель Анхел, Суарес Пабло, Канкуэро Изабель, Альгазе Жаклин, Дюпрей Луис Кабальеро и др.

О фильме: Столица Пуэрто-Рико искрится праздничными огнями, влиятельный адвокат Генри Хёрст спешит на благотворительный бал. Но сначала ему нужно ответить на вопросы инспектора полиции Виктора Бенезэ касательно трупа, найденного им в парке.

Стареющий миллионер еще не знает, что этот вечер станет самым трагичным в его жизни, ибо в ближайшие часы ему предстоит выдержать жестокую интеллектуальную дуэль с опытным детективом, который обвинит его в бесчеловечных убийствах и изнасилованиях девочек из трущоб. Все факты свидетельствуют против адвоката, но что-то настораживает проницательного сыщика, и вскоре он понимает, что узнает истину, только если заглянет в самые мрачные уголки души блистательного Генри Хёрста.



Страна: Франция, США
Продолжительность: 01:50:57
Перевод: Профессиональный (многоголосый, закадровый), Авторский (одноголосый, закадровый)

Файл
Качество: BDRip 720p
Формат: Matroska
Видео: 1280х720 at 23.976 fps, х264, ~5600 kbps avg
Аудио#1: Russian: 48 kHz, AC3, 2/0 (L,R) ch, ~192 kbps avg |Многоголосый закадровый, 1 канал|
Аудио#2: Russian: 48 kHz, AC3, 3/2 (L,C,R,l,r) ch, ~448 kbps avg |Многоголосый закадровый, Неоклассика|
Аудио#3: Russian: 48 kHz, AC3, 2/0 (L,R) ch, ~192 kbps avg |Авторский, Ю.Живов|
Аудио#4: Russian: 48 kHz, AC3, 2/0 (L,R) ch, ~192 kbps avg |Авторский, С.Кузнецов|
Аудио#5: Russian: 48 kHz, AC3, 3/2 (L,C,R,l,r) + LFE ch, ~448 kbps avg |Авторский, М.Яроцкий|
Аудио#6: English: 48 kHz, AC3, 3/2 (L,C,R,l,r) + LFE ch, ~448 kbps avg
Субтитры: Russian, English
***Сохранены оригинальные главы как на Blu-ray.
***Релиз: msltel.
[*]Является ремейком французского фильма «Под предварительным следствием», сюжет которого, в свою очередь, основан на романе Джона Уэйнрайта «Промывка мозгов» («Brainwash»).
Общее
Уникальный идентификатор : 172617113510974888285425029725515094862 (0x81DCD8C6BC07B7BD9543A65723A31B4E)
Полное имя : Под подозрением.2000.BDRip.720p by msltel.mkv
Формат : Matroska
Версия формата : Version 4 / Version 2
Размер файла : 5,96 Гбайт
Продолжительность : 1 ч. 51 м.
Общий поток : 7680 Кбит/сек
Название фильма : Rip by msltel
Дата кодирования : UTC 2018-08-02 16:07:02
Программа кодирования : mkvmerge v8.2.0 ('World of Adventure') 64bit
Библиотека кодирования : libebml v1.3.1 + libmatroska v1.4.2

Видео
Идентификатор : 1
Формат : AVC
Формат/Информация : Advanced Video Codec
Профиль формата : High@L4.1
Параметр CABAC формата : Да
Параметр ReFrames формата : 9 кадров
Идентификатор кодека : V_MPEG4/ISO/AVC
Продолжительность : 1 ч. 51 м.
Битрейт : 5607 Кбит/сек
Ширина : 1280 пикселей
Высота : 720 пикселей
Соотношение сторон : 16:9
Режим частоты кадров : Постоянный
Частота кадров : 23,976 кадра/сек
Цветовое пространство : YUV
Субдискретизация насыщенности : 4:2:0
Битовая глубина : 8 бит
Тип развёртки : Прогрессивная
Бит/(Пиксели*Кадры) : 0.254
Размер потока : 4,35 Гбайт (73%)
Библиотека кодирования : x264 core 155 r2901 7d0ff22
Настройки программы : cabac=1 / ref=9 / deblock=1:-3:-2 / analyse=0x3:0x113 / me=umh / subme=11 / psy=1 / psy_rd=1.00:0.15 / mixed_ref=1 / me_range=32 / chroma_me=1 / trellis=2 / 8x8dct=1 / cqm=0 / deadzone=21,11 / fast_pskip=0 / chroma_qp_offset=-3 / threads=6 / lookahead_threads=1 / sliced_threads=0 / nr=0 / decimate=1 / interlaced=0 / bluray_compat=0 / constrained_intra=0 / bframes=16 / b_pyramid=2 / b_adapt=2 / b_bias=0 / direct=1 / weightb=1 / open_gop=0 / weightp=2 / keyint=230 / keyint_min=23 / scenecut=40 / intra_refresh=0 / rc_lookahead=40 / rc=crf / mbtree=1 / crf=20.0 / qcomp=0.60 / qpmin=0 / qpmax=69 / qpstep=4 / vbv_maxrate=62500 / vbv_bufsize=78125 / crf_max=0.0 / nal_hrd=none / filler=0 / ip_ratio=1.40 / aq=1:1.00
Язык : English
Default : Да
Forced : Нет

Аудио #1
Идентификатор : 2
Формат : AC-3
Формат/Информация : Audio Coding 3
Расширение режима : CM (complete main)
Параметр Endianness формата : Big
Идентификатор кодека : A_AC3
Продолжительность : 1 ч. 51 м.
Вид битрейта : Постоянный
Битрейт : 192 Кбит/сек
Каналы : 2 канала
Расположение каналов : Front: L R
Частота : 48,0 КГц
Битовая глубина : 16 бит
Метод сжатия : С потерями
Размер потока : 152 Мбайт (2%)
Заголовок : MVO 1 канал
Язык : Russian
Default : Да
Forced : Нет

Аудио #2
Идентификатор : 3
Формат : AC-3
Формат/Информация : Audio Coding 3
Расширение режима : CM (complete main)
Параметр Endianness формата : Big
Идентификатор кодека : A_AC3
Продолжительность : 1 ч. 51 м.
Вид битрейта : Постоянный
Битрейт : 448 Кбит/сек
Каналы : 5 каналов
Расположение каналов : Front: L C R, Side: L R
Частота : 48,0 КГц
Битовая глубина : 16 бит
Метод сжатия : С потерями
Размер потока : 356 Мбайт (6%)
Заголовок : MVO Неоклассика
Язык : Russian
Default : Нет
Forced : Нет

Аудио #3
Идентификатор : 4
Формат : AC-3
Формат/Информация : Audio Coding 3
Расширение режима : CM (complete main)
Параметр Endianness формата : Big
Идентификатор кодека : A_AC3
Продолжительность : 1 ч. 51 м.
Вид битрейта : Постоянный
Битрейт : 192 Кбит/сек
Каналы : 2 канала
Расположение каналов : Front: L R
Частота : 48,0 КГц
Битовая глубина : 16 бит
Метод сжатия : С потерями
Размер потока : 152 Мбайт (2%)
Заголовок : Юрий Живов
Язык : Russian
Default : Нет
Forced : Нет

Аудио #4
Идентификатор : 5
Формат : AC-3
Формат/Информация : Audio Coding 3
Расширение режима : CM (complete main)
Параметр Endianness формата : Big
Идентификатор кодека : A_AC3
Продолжительность : 1 ч. 51 м.
Вид битрейта : Постоянный
Битрейт : 192 Кбит/сек
Каналы : 2 канала
Расположение каналов : Front: L R
Частота : 48,0 КГц
Битовая глубина : 16 бит
Метод сжатия : С потерями
Размер потока : 152 Мбайт (2%)
Заголовок : Сергей Кузнецов
Язык : Russian
Default : Нет
Forced : Нет

Аудио #5
Идентификатор : 6
Формат : AC-3
Формат/Информация : Audio Coding 3
Расширение режима : CM (complete main)
Параметр Endianness формата : Big
Идентификатор кодека : A_AC3
Продолжительность : 1 ч. 51 м.
Вид битрейта : Постоянный
Битрейт : 448 Кбит/сек
Каналы : 6 каналов
Расположение каналов : Front: L C R, Side: L R, LFE
Частота : 48,0 КГц
Битовая глубина : 16 бит
Метод сжатия : С потерями
Размер потока : 356 Мбайт (6%)
Заголовок : Михаил Яроцкий
Язык : Russian
Default : Нет
Forced : Нет

Аудио #6
Идентификатор : 7
Формат : AC-3
Формат/Информация : Audio Coding 3
Расширение режима : CM (complete main)
Параметр Endianness формата : Big
Идентификатор кодека : A_AC3
Продолжительность : 1 ч. 51 м.
Вид битрейта : Постоянный
Битрейт : 448 Кбит/сек
Каналы : 6 каналов
Расположение каналов : Front: L C R, Side: L R, LFE
Частота : 48,0 КГц
Битовая глубина : 16 бит
Метод сжатия : С потерями
Размер потока : 356 Мбайт (6%)
Заголовок : original
Язык : English
Default : Нет
Forced : Нет

Текст #1
Идентификатор : 8
Формат : UTF-8
Идентификатор кодека : S_TEXT/UTF8
Идентификатор кодека/Информация : UTF-8 Plain Text
Заголовок : русские
Язык : Russian
Default : Нет
Forced : Нет

Текст #2
Идентификатор : 9
Формат : UTF-8
Идентификатор кодека : S_TEXT/UTF8
Идентификатор кодека/Информация : UTF-8 Plain Text
Заголовок : английские
Язык : English
Default : Нет
Forced : Нет

Меню
00:00:00.000 : en:Chapter 1
00:10:36.218 : en:Chapter 2
00:19:17.614 : en:Chapter 3
00:29:18.339 : en:Chapter 4
00:39:18.564 : en:Chapter 5
00:50:46.960 : en:Chapter 6
00:59:01.704 : en:Chapter 7
01:09:16.569 : en:Chapter 8
01:18:42.759 : en:Chapter 9
01:28:36.269 : en:Chapter 10
01:37:02.233 : en:Chapter 11
01:46:33.595 : en:Chapter 12
01:50:57.233 : en:Chapter 13


_________________
Проголосуй за трекер Открытый торрент трекер - RUS-MEDIA.ORG

Проголосуй Открытый торрент трекер - RUS-MEDIA.ORG


Вернуться к началу
 Профиль  
 
   Похожие торренты   Автор   Торрент   Размер 
В этой теме нет новых непрочитанных сообщений. Под подозрением / Under Suspicion [детектив, триллер, драма, 2000] WEBRip-AVC, Mvo

salma3

0 | 0

1.72 ГБ

В этой теме нет новых непрочитанных сообщений. Под подозрением / Under Suspicion [детектив, триллер, драма, 2000] WEBRip-AVC, Mvo

salma3

0 | 0

746.62 МБ

В этой теме нет новых непрочитанных сообщений. Под подозрением / Under Suspicion [детектив, триллер, драма, 2000] WEBRip 1080p, Mvo

salma3

0 | 0

9.21 ГБ

В этой теме нет новых непрочитанных сообщений. Под подозрением / Under Suspicion [детектив, триллер, драма, 2000] BDRemux 1080p, Mvo

salma3

0 | 0

28.44 ГБ

В этой теме нет новых непрочитанных сообщений. Под подозрением / Under Suspicion [триллер, драма, криминал, 1991] BDRip, Dvo

salma3

108 | 19

1.45 ГБ

В этой теме нет новых непрочитанных сообщений. Под подозрением / Under Suspicion [триллер, драма, криминал, 1991] BDRip 1080p, Dvo

salma3

0 | 0

11.8 ГБ

В этой теме нет новых непрочитанных сообщений. Ворон 3: Спасение / The Crow: Salvation [фэнтези, боевик, триллер, криминал, детектив, 2000] BDRip 720p, Mvo

salma3

23 | 8

4.36 ГБ


Начать новую тему Ответить на тему  [ 1 сообщение ] 




Для Мосгорсуда, Роскомнадзора и рекламодателей:: mosgorsud-torrent[собачка]yandex.ru
cron