Торрент файл
скачать торрент магнет ссылка Добавлен: 01 авг 2018, 20:45
Размер: 14.17 ГБ
Сидеров: 0
Личеров: 0
Статус: (salma3)
Автор

СообщениеДобавлено: 01 авг 2018, 20:45 

Не в сети
Супермодератор
Аватара пользователя
Дата регистрации:
15 фев 2012, 16:44
Возраст: 30
Спасибо: 8093 / 2147
Сообщения: 92221
Год выхода: 2003
Жанр: боевик, триллер, криминал
Режиссер: Квентин Тарантино / Quentin Tarantino

В ролях: Ума Турман, Люси Лью, Вивика А. Фокс, Джули Дрейфус, Тиаки Курияма, Сонни Тиба, Майкл Боуэн, Дэрил Ханна, Дэвид Кэрредин, Майкл Мэдсен

О фильме:
В беременную наемную убийцу по кличке Черная Мамба во время бракосочетания стреляет человек по имени Билл. Пуля в голове жертвы, кровь на подвенечном платье, темнота... Но голова у Черной Мамбы оказалась крепкой.



Страна: США
Продолжительность: 01:50:43
Перевод: Дублированный, авторский (одноголосый, закадровый).

Файл
Кодек: x264
Качество: BDRip 1080p
Видео: 1920x800, 13100 kbit/s, 23.976 fps
Звук:
Russian: DTS / 5.1 / 48 kHz / 1509 kbps / 24 bit - Дублированный [ред. krat11]
Russian: AC3 / 5.1 / 48 kHz / 640 kbps / 16 bit - А.Киреев
Russian: DTS / 5.1 / 48 kHz / 1509 kbps / 16 bit - М.Яроцкий
English: DTS / 5.1 / 48 kHz / 1509 kbps / 16 bit - Оригинал
Субтитры: русские(х4), английские
Unique ID : 275889692948376082095649559224646731901 (0xCF8E6C0EB9F87289379D28676301887D)
Complete name : D:Kill Bill_Vol_1.2003.x264.BDRip.1080p.mkv
Format : Matroska
Format version : Version 4 / Version 2
File size : 14.2 GiB
Duration : 1 h 50 min
Overall bit rate : 18.3 Mb/s
Movie name : = Kill Bill: Vol. 1=
Writing application : mkvmerge v25.0.0 ('Prog Noir') 64-bit
Writing library : libebml v1.3.6 + libmatroska v1.4.9
Video
ID : 1
Format : AVC
Format/Info : Advanced Video Codec
Format profile : High@L4.1
Format settings : CABAC / 5 Ref Frames
Format settings, CABAC : Yes
Format settings, ReFrames : 5 frames
Codec ID : V_MPEG4/ISO/AVC
Duration : 1 h 50 min
Bit rate : 13.1 Mb/s
Width : 1 920 pixels
Height : 800 pixels
Display aspect ratio : 2.40:1
Frame rate mode : Constant
Frame rate : 23.976 (24000/1001) FPS
Color space : YUV
Chroma subsampling : 4:2:0
Bit depth : 8 bits
Scan type : Progressive
Bits/(Pixel*Frame) : 0.357
Stream size : 10.2 GiB (72%)
Title : =stimco=
Writing library : x264 core 155 r2901 7d0ff22
Language : English
Default : Yes
Forced : Yes
Color range : Limited
Matrix coefficients : BT.709

Audio #1
ID : 2
Format : DTS
Format/Info : Digital Theater Systems
Codec ID : A_DTS
Duration : 1 h 50 min
Bit rate mode : Constant
Bit rate : 1 509 kb/s
Channel(s) : 6 channels
Channel positions : Front: L C R, Side: L R, LFE
Sampling rate : 48.0 kHz
Frame rate : 93.750 FPS (512 SPF)
Bit depth : 24 bits
Compression mode : Lossy
Stream size : 1.17 GiB (8%)
Title : Dub [krat11]
Language : Russian
Default : Yes
Forced : No

Audio #2
ID : 3
Format : AC-3
Format/Info : Audio Coding 3
Codec ID : A_AC3
Duration : 1 h 50 min
Bit rate mode : Constant
Bit rate : 640 kb/s
Channel(s) : 6 channels
Channel positions : Front: L C R, Side: L R, LFE
Sampling rate : 48.0 kHz
Frame rate : 31.250 FPS (1536 SPF)
Bit depth : 16 bits
Compression mode : Lossy
Stream size : 507 MiB (3%)
Title : AVO [А.Киреев]
Language : Russian
Service kind : Complete Main
Default : No
Forced : No

Audio #3
ID : 4
Format : DTS
Format/Info : Digital Theater Systems
Codec ID : A_DTS
Duration : 1 h 50 min
Bit rate mode : Constant
Bit rate : 1 509 kb/s
Channel(s) : 6 channels
Channel positions : Front: L C R, Side: L R, LFE
Sampling rate : 48.0 kHz
Frame rate : 93.750 FPS (512 SPF)
Bit depth : 24 bits
Compression mode : Lossy
Stream size : 1.17 GiB (8%)
Title : AVO [М.Яроцкий]
Language : Russian
Default : No
Forced : No

Audio #4
ID : 5
Format : DTS
Format/Info : Digital Theater Systems
Codec ID : A_DTS
Duration : 1 h 50 min
Bit rate mode : Constant
Bit rate : 1 509 kb/s
Channel(s) : 6 channels
Channel positions : Front: L C R, Side: L R, LFE
Sampling rate : 48.0 kHz
Frame rate : 93.750 FPS (512 SPF)
Bit depth : 24 bits
Compression mode : Lossy
Stream size : 1.17 GiB (8%)
Title : Original
Language : English
Default : No
Forced : No

Text #1
ID : 6
Format : UTF-8
Codec ID : S_TEXT/UTF8
Codec ID/Info : UTF-8 Plain Text
Duration : 1 h 42 min
Bit rate : 47 b/s
Count of elements : 711
Stream size : 35.7 KiB (0%)
Title : v1
Language : Russian
Default : No
Forced : No

Text #2
ID : 7
Format : UTF-8
Codec ID : S_TEXT/UTF8
Codec ID/Info : UTF-8 Plain Text
Duration : 1 h 42 min
Bit rate : 47 b/s
Count of elements : 525
Stream size : 35.5 KiB (0%)
Title : v2
Language : Russian
Default : No
Forced : No

Text #3
ID : 8
Format : UTF-8
Codec ID : S_TEXT/UTF8
Codec ID/Info : UTF-8 Plain Text
Duration : 1 h 42 min
Bit rate : 47 b/s
Count of elements : 717
Stream size : 36.1 KiB (0%)
Title : Goblin
Language : Russian
Default : No
Forced : No

Text #4
ID : 9
Format : UTF-8
Codec ID : S_TEXT/UTF8
Codec ID/Info : UTF-8 Plain Text
Duration : 1 h 42 min
Bit rate : 49 b/s
Count of elements : 642
Stream size : 37.0 KiB (0%)
Title : sanykool
Language : Russian
Default : No
Forced : No

Text #5
ID : 10
Format : UTF-8
Codec ID : S_TEXT/UTF8
Codec ID/Info : UTF-8 Plain Text
Duration : 1 h 41 min
Bit rate : 26 b/s
Count of elements : 676
Stream size : 20.1 KiB (0%)
Title : Full
Language : English
Default : No
Forced : No

Text #6
ID : 11
Format : UTF-8
Codec ID : S_TEXT/UTF8
Codec ID/Info : UTF-8 Plain Text
Duration : 1 h 42 min
Bit rate : 32 b/s
Count of elements : 849
Stream size : 24.4 KiB (0%)
Title : SDH
Language : English
Default : No
Forced : No

Menu
00:00:00.000 : en:00:00:00.000
00:05:00.000 : en:00:05:00.000
00:10:00.000 : en:00:10:00.000
00:15:00.000 : en:00:15:00.000
00:20:00.000 : en:00:20:00.000
00:25:00.000 : en:00:25:00.000
00:30:00.000 : en:00:30:00.000
00:35:00.000 : en:00:35:00.000
00:40:00.000 : en:00:40:00.000
00:45:00.000 : en:00:45:00.000
00:50:00.000 : en:00:50:00.000
00:55:00.000 : en:00:55:00.000
01:00:00.000 : en:01:00:00.000
01:05:00.000 : en:01:05:00.000
01:10:00.000 : en:01:10:00.000
01:15:00.000 : en:01:15:00.000
01:20:00.000 : en:01:20:00.000
01:25:00.000 : en:01:25:00.000
01:30:00.000 : en:01:30:00.000
01:35:00.000 : en:01:35:00.000
01:40:00.000 : en:01:40:00.000
01:45:00.000 : en:01:45:00.000
01:50:00.000 : en:01:50:00.000


_________________
Проголосуй за трекер Открытый торрент трекер - RUS-MEDIA.ORG

Проголосуй Открытый торрент трекер - RUS-MEDIA.ORG


Книжный торрент трекер



Вернуться к началу
 Профиль Отправить личное сообщение  
 
   Похожие торренты   Автор   Торрент   Размер 
В этой теме нет новых непрочитанных сообщений. Убить Билла 2 / Kill Bill: Vol. 2 [боевик, триллер, криминал, 2004] WEB-DL 1080p, Dub [Open Matte] [Международная версия]

salma3

17 | 8

10.76 ГБ

В этой теме нет новых непрочитанных сообщений. Убить дважды / Убивай снова и снова / Kill and Kill Again [Боевик, драма, 1981] BDRip 1080p, Avo

salma3

12 | 11

9.25 ГБ

В этой теме нет новых непрочитанных сообщений. Новые приключения Билла и Теда / Bill & Ted's Bogus Journey [Комедия, Приключения, 1991] BDRip 1080p, Dvo

K15

8 | 3

9.47 ГБ

В этой теме нет новых непрочитанных сообщений. Убить дважды / Kill and Kill Again [боевик, драма, 1981] HDRip, Avo

salma3

0 | 0

1.45 ГБ

В этой теме нет новых непрочитанных сообщений. Убить короля / Номер в Шангри-Ла / Kill the King / Shangri-La Suite [Драма, мелодрама, криминал, 2015] BDRip 720р, Avo

salma3

7 | 4

10.35 ГБ

В этой теме нет новых непрочитанных сообщений. Убить короля / Номер в Шангри-Ла / Kill the King / Shangri-La Suite (Эдди О’Кифи) [2015, Драма, мелодрама, криминал, BDRip] avo

marya111

255 | 24

1.45 ГБ

В этой теме нет новых непрочитанных сообщений. Невероятные приключения Билла и Теда / Bill & Ted's Excellent Adventure [фантастика, комедия, приключения, 1989] BDRip, Dvo

salma3

62 | 14

1.45 ГБ


Начать новую тему Ответить на тему  [ 1 сообщение ] 




Для Мосгорсуда, Роскомнадзора и рекламодателей:: mosgorsud-torrent[собачка]yandex.ru
cron