COVID-19 - Последняя информация о коронавирусе на сайте Минздрава




Торрент файл
скачать торрент магнет ссылка Добавлен: 30 июл 2018, 20:16
Размер: 4.25 ГБ
Сидеров: 0
Личеров: 0
Статус: (salma3)
Автор

СообщениеДобавлено: 30 июл 2018, 20:16 

Не в сети
Супермодератор
Аватара пользователя
Дата регистрации:
15 фев 2012, 16:44
Возраст: 31
Спасибо: 8280 / 2148
Сообщения: 96711
Год выхода: 2008
Жанр: фэнтези, боевик, приключения
Режиссер: Рассел Малкэй / Russell Mulcahy

В ролях: Майкл Копон, Рэнди Кутюр, Карен Шеназ Дэвид, Амира Куинлэн, Пьер Маре

О фильме:
Молодой Масьюз видит смерть своего отца, самого великого воина его народа. Всем известно кто убил его. Годы проходят и Масьюз становится воином Черным Скорпионом, готовым служить своему царю, человеку, что убил его отца. Как его остановить, если царь — владеет черной магией и поддержкой Богини Смерти.



Выпущено: США, Германия, ЮАР
Продолжительность: 01:48:53
Перевод: Профессиональный (полное дублирование)

Файл
Кодек: H.264
Качество: BDRip 720р от SuperMin
Видео: 1280x720 (16:9), 4552 kbps, 23.976 fps
Звук: Русский (AC-3, 6ch, 384 kbps)
Английский (AC-3, 6ch, 640 kbps)
Субтитры: английские

x264 [info]: frame I:1343 Avg QP:17.40 size:131397
x264 [info]: frame P:38933 Avg QP:18.45 size: 50687
x264 [info]: frame B:116380 Avg QP:21.41 size: 13471
x264 [info]: consecutive B-frames: 3.3% 5.1% 15.2% 18.1% 20.2% 33.8% 3.2% 0.8% 0.3%
x264 [total]: encoded 156656 frames, 4.02 fps, 4551.84 kb/s

General
Unique ID : 239793967894035950585748755665300105696 (0xB466A3694555B59298F185121A0A29E0)
Complete name : F:Царь скорпионов 2. Восхождение воина.mkv
Format : Matroska
Format version : Version 4 / Version 2
File size : 4.25 GiB
Duration : 1 h 48 min
Overall bit rate : 5 587 kb/s
Movie name : Царь скорпионов 2: Восхождение воина / The Scorpion King: Rise of a Warrior (2008) - #LORDKILL#
Encoded date : UTC 2018-07-30 15:29:54
Writing application : mkvmerge v9.5.0 ('Quiet Fire') 64bit
Writing library : libebml v1.3.4 + libmatroska v1.4.5

Video
ID : 1
Format : AVC
Format/Info : Advanced Video Codec
Format profile : High@L4.1
Format settings, CABAC : Yes
Format settings, ReFrames : 9 frames
Codec ID : V_MPEG4/ISO/AVC
Duration : 1 h 48 min
Bit rate : 4 552 kb/s
Width : 1 280 pixels
Height : 720 pixels
Display aspect ratio : 16:9
Frame rate mode : Constant
Frame rate : 23.976 (24000/1001) FPS
Color space : YUV
Chroma subsampling : 4:2:0
Bit depth : 8 bits
Scan type : Progressive
Bits/(Pixel*Frame) : 0.206
Stream size : 3.46 GiB (81%)
Writing library : x264 core 146 r2538 121396c
Encoding settings : cabac=1 / ref=9 / deblock=1:-2:-2 / analyse=0x3:0x113 / me=umh / subme=11 / psy=1 / psy_rd=1.00:0.15 / mixed_ref=1 / me_range=32 / chroma_me=1 / trellis=2 / 8x8dct=1 / cqm=0 / deadzone=21,11 / fast_pskip=0 / chroma_qp_offset=-3 / threads=12 / lookahead_threads=2 / sliced_threads=0 / nr=0 / decimate=1 / interlaced=0 / bluray_compat=0 / constrained_intra=0 / bframes=8 / b_pyramid=2 / b_adapt=2 / b_bias=0 / direct=1 / weightb=1 / open_gop=0 / weightp=2 / keyint=240 / keyint_min=23 / scenecut=40 / intra_refresh=0 / rc=crf / mbtree=0 / crf=19.5 / qcomp=0.60 / qpmin=0 / qpmax=69 / qpstep=4 / ip_ratio=1.40 / pb_ratio=1.30 / aq=1:1.00
Language : English
Default : Yes
Forced : No

Audio #1
ID : 2
Format : AC-3
Format/Info : Audio Coding 3
Mode extension : CM (complete main)
Format settings, Endianness : Big
Codec ID : A_AC3
Duration : 1 h 48 min
Bit rate mode : Constant
Bit rate : 384 kb/s
Channel(s) : 6 channels
Channel positions : Front: L C R, Side: L R, LFE
Sampling rate : 48.0 kHz
Frame rate : 31.250 FPS (1536 spf)
Bit depth : 16 bits
Compression mode : Lossy
Stream size : 299 MiB (7%)
Title : Дубляж
Language : Russian
Default : Yes
Forced : No

Audio #2
ID : 3
Format : AC-3
Format/Info : Audio Coding 3
Mode extension : CM (complete main)
Format settings, Endianness : Big
Codec ID : A_AC3
Duration : 1 h 48 min
Bit rate mode : Constant
Bit rate : 640 kb/s
Channel(s) : 6 channels
Channel positions : Front: L C R, Side: L R, LFE
Sampling rate : 48.0 kHz
Frame rate : 31.250 FPS (1536 spf)
Bit depth : 16 bits
Compression mode : Lossy
Stream size : 498 MiB (11%)
Language : English
Default : No
Forced : No

Text
ID : 4
Format : PGS
Muxing mode : zlib
Codec ID : S_HDMV/PGS
Codec ID/Info : Picture based subtitle format used on BDs/HD-DVDs
Duration : 1 h 44 min
Bit rate : 9 402 b/s
Count of elements : 2242
Stream size : 7.02 MiB (0%)
Language : English
Default : Yes
Forced : No


_________________
Проголосуй за трекер Открытый торрент трекер - RUS-MEDIA.ORG

Проголосуй Открытый торрент трекер - RUS-MEDIA.ORG


Скачать книги и аудио книги через торрент


Вернуться к началу
 Профиль Отправить личное сообщение  
 
   Похожие торренты   Автор   Торрент   Размер 
В этой теме нет новых непрочитанных сообщений. Царь скорпионов / The Scorpion King [фэнтези, боевик, триллер, приключения, 2002] UHD BDRip 1080p, Dub

NTL

0 | 0

8.31 ГБ

В этой теме нет новых непрочитанных сообщений. Царь Скорпионов: Книга Душ / The Scorpion King: Book of Souls [Фэнтези, боевик, приключения, 2018] BDRip 1080p, Dub

salma3

3 | 9

7.79 ГБ

В этой теме нет новых непрочитанных сообщений. Царь Скорпионов: Книга Душ / The Scorpion King: Book of Souls [Фэнтези, боевик, приключения, 2018] BDRemux 1080p, Dub

salma3

0 | 0

26.84 ГБ

В этой теме нет новых непрочитанных сообщений. Царь скорпионов / The Scorpion King [фэнтези, боевик, триллер, 2002] UHD BDRemux 2160p, Dub [4K]

salma3

0 | 0

49.53 ГБ

В этой теме нет новых непрочитанных сообщений. Царь Скорпионов: Книга Душ / The Scorpion King: Book of Souls [Фэнтези, боевик, приключения, 2018] WEBRip, Dvo

salma3

51 | 58

1.43 ГБ

В этой теме нет новых непрочитанных сообщений. Царь Скорпионов: Книга Душ / The Scorpion King: Book of Souls [Фэнтези, боевик, приключения, 2018] WEBRip 720p, Dvo

salma3

500 | 58

2.28 ГБ

В этой теме нет новых непрочитанных сообщений. Царь скорпионов / The Scorpion King [фэнтези, боевик, триллер, 2002] WEB-DLRip 720p, Dub [Open Matte]

salma3

0 | 0

3.6 ГБ


Начать новую тему Ответить на тему  [ 1 сообщение ] 




Для Мосгорсуда, Роскомнадзора и рекламодателей:: rstracker[собака]yandex.ru
cron