COVID-19 - Последняя информация о коронавирусе на сайте Минздрава




Торрент файл
скачать торрент магнет ссылка Добавлен: 30 июл 2018, 01:36
Размер: 3.6 ГБ
Сидеров: 0
Личеров: 0
Статус: (salma3)
Автор

СообщениеДобавлено: 30 июл 2018, 01:36 

Не в сети
Супермодератор
Аватара пользователя
Дата регистрации:
15 фев 2012, 16:44
Возраст: 31
Спасибо: 8281 / 2148
Сообщения: 96717
Год выхода: 2002
Жанр: фэнтези, боевик, триллер
Режиссер: Чак Рассел

В ролях: Дуэйн Джонсон, Стивен Брэнд, Майкл Кларк Дункан, Келли Ху, Бернард Хилл, Грант Хеслов, Питер Фасинелли, Ральф Мюллер, Брэнском Ричмонд, Роджер Рис


Эта история произошла 5 тыс. лет назад в Египте, еще задолго до постройки первых пирамид. Злой правитель и могущественный воин Мемнон решил поработить все народы, живущие в пустыне. Со своей многочисленной армией Мемнон выигрывает одно сражение за другим. Удача сопутствует жестокому злодею, потому что все злодеяния Мемнон совершает, опираясь на предсказания своего провидца. Осталась только горстка непокорных народов в пустыне, которые еще противостоят власти Мемнона.Немногие оставшиеся племена нанимают воина акадца Метаеса — человека убивающего за деньги — чтобы тот убил провидца Мемнона. Оказавшись во вражеском лагере, Метаес к своему удивлению обнаруживает, что ясновидец — это красивая молодая женщина Кассандра. Он оставляет ее в живых и берет с собой в пустыню, чтобы выманить Мемнона из его города-крепости Гоморры. Единственное, что может успокоить теперь Метаеса — это смерть Мемнона…



Выпущено: Германия, США, Бельгия
Продолжительность: 01:31:00
Перевод: Дублированный, профессиональный (многоголосый, закадровый)

Файл
Кодек: H.264
Качество: WEB-DLRip-720
Видео: 1280x720 (16:9), 4221 kbps, 23.976 fps
Звук: Русский (AC-3, 6ch, 384 kbps) - DUB
Русский (AC-3, 2ch, 192 kbps) - MVO Премьер
Русский (AC-3, 2ch, 192 kbps) - MVO СТС
Английский (AC-3, 6ch, 640 kbps)
Субтитры: Русские, английские

General
Unique ID : 209149746331378447373023245957675851940 (0x9D58C6A37BC3FA108FD7C17619CFA0A4)
Complete name : F:Царь скорпионов (Open Matte).mkv
Format : Matroska
Format version : Version 4 / Version 2
File size : 3.60 GiB
Duration : 1 h 31 min
Overall bit rate : 5 625 kb/s
Movie name : Царь скорпионов / The Scorpion King (2002) (Open Matte) - #LORDKILL#
Encoded date : UTC 2018-07-29 18:14:30
Writing application : mkvmerge v9.5.0 ('Quiet Fire') 64bit
Writing library : libebml v1.3.4 + libmatroska v1.4.5

Video
ID : 1
Format : AVC
Format/Info : Advanced Video Codec
Format profile : High@L4.1
Format settings, CABAC : Yes
Format settings, ReFrames : 9 frames
Codec ID : V_MPEG4/ISO/AVC
Duration : 1 h 31 min
Bit rate : 4 221 kb/s
Width : 1 280 pixels
Height : 720 pixels
Display aspect ratio : 16:9
Frame rate mode : Constant
Frame rate : 23.976 (24000/1001) FPS
Color space : YUV
Chroma subsampling : 4:2:0
Bit depth : 8 bits
Scan type : Progressive
Bits/(Pixel*Frame) : 0.191
Stream size : 2.70 GiB (75%)
Writing library : x264 core 146 r2538 121396c
Encoding settings : cabac=1 / ref=9 / deblock=1:-2:-2 / analyse=0x3:0x113 / me=umh / subme=11 / psy=1 / psy_rd=1.00:0.15 / mixed_ref=1 / me_range=32 / chroma_me=1 / trellis=2 / 8x8dct=1 / cqm=0 / deadzone=21,11 / fast_pskip=0 / chroma_qp_offset=-3 / threads=12 / lookahead_threads=2 / sliced_threads=0 / nr=0 / decimate=1 / interlaced=0 / bluray_compat=0 / constrained_intra=0 / bframes=8 / b_pyramid=2 / b_adapt=2 / b_bias=0 / direct=1 / weightb=1 / open_gop=0 / weightp=2 / keyint=240 / keyint_min=23 / scenecut=40 / intra_refresh=0 / rc=crf / mbtree=0 / crf=20.0 / qcomp=0.60 / qpmin=0 / qpmax=69 / qpstep=4 / ip_ratio=1.40 / pb_ratio=1.30 / aq=1:1.00
Language : English
Default : Yes
Forced : No

Audio #1
ID : 2
Format : AC-3
Format/Info : Audio Coding 3
Mode extension : CM (complete main)
Format settings, Endianness : Big
Codec ID : A_AC3
Duration : 1 h 31 min
Bit rate mode : Constant
Bit rate : 384 kb/s
Channel(s) : 6 channels
Channel positions : Front: L C R, Side: L R, LFE
Sampling rate : 48.0 kHz
Frame rate : 31.250 FPS (1536 spf)
Bit depth : 16 bits
Compression mode : Lossy
Stream size : 251 MiB (7%)
Title : DUB BD
Language : Russian
Default : Yes
Forced : No

Audio #2
ID : 3
Format : AC-3
Format/Info : Audio Coding 3
Mode extension : CM (complete main)
Format settings, Endianness : Big
Codec ID : A_AC3
Duration : 1 h 31 min
Bit rate mode : Constant
Bit rate : 192 kb/s
Channel(s) : 2 channels
Channel positions : Front: L R
Sampling rate : 48.0 kHz
Frame rate : 31.250 FPS (1536 spf)
Bit depth : 16 bits
Compression mode : Lossy
Stream size : 126 MiB (3%)
Title : MVO Премьер
Language : Russian
Default : No
Forced : No

Audio #3
ID : 4
Format : AC-3
Format/Info : Audio Coding 3
Mode extension : CM (complete main)
Format settings, Endianness : Big
Codec ID : A_AC3
Duration : 1 h 31 min
Bit rate mode : Constant
Bit rate : 192 kb/s
Channel(s) : 2 channels
Channel positions : Front: L R
Sampling rate : 48.0 kHz
Frame rate : 31.250 FPS (1536 spf)
Bit depth : 16 bits
Compression mode : Lossy
Stream size : 126 MiB (3%)
Title : MVO СТС
Language : Russian
Default : No
Forced : No

Audio #4
ID : 5
Format : E-AC-3
Format/Info : Enhanced Audio Coding 3
Format settings, Endianness : Big
Codec ID : A_EAC3
Duration : 1 h 31 min
Bit rate mode : Constant
Bit rate : 640 kb/s
Channel(s) : 6 channels
Channel positions : Front: L C R, Side: L R, LFE
Sampling rate : 48.0 kHz
Frame rate : 187.500 FPS (256 spf)
Compression mode : Lossy
Stream size : 419 MiB (11%)
Title : E-AC3 5.1 640Kbps
Language : English
Default : No
Forced : No

Text #1
ID : 6
Format : UTF-8
Codec ID : S_TEXT/UTF8
Codec ID/Info : UTF-8 Plain Text
Duration : 1 h 23 min
Bit rate : 49 b/s
Count of elements : 613
Stream size : 30.2 KiB (0%)
Language : Russian
Default : No
Forced : No

Text #2
ID : 7
Format : UTF-8
Codec ID : S_TEXT/UTF8
Codec ID/Info : UTF-8 Plain Text
Duration : 1 h 23 min
Bit rate : 30 b/s
Count of elements : 615
Stream size : 18.5 KiB (0%)
Language : English
Default : No
Forced : No


_________________
Проголосуй за трекер Открытый торрент трекер - RUS-MEDIA.ORG

Проголосуй Открытый торрент трекер - RUS-MEDIA.ORG


Скачать книги и аудио книги через торрент


Вернуться к началу
 Профиль Отправить личное сообщение  
 
   Похожие торренты   Автор   Торрент   Размер 
В этой теме нет новых непрочитанных сообщений. Царь скорпионов / The Scorpion King [фэнтези, боевик, триллер, 2002] UHD BDRemux 2160p, Dub [4K]

salma3

0 | 0

49.53 ГБ

В этой теме нет новых непрочитанных сообщений. Царь скорпионов / The Scorpion King [фэнтези, боевик, триллер, приключения, 2002] UHD BDRip 1080p, Dub

NTL

0 | 0

8.31 ГБ

В этой теме нет новых непрочитанных сообщений. Царь скорпионов / The Scorpion King [Фэнтези, боевик, триллер, 2002] UHD Blu-Ray 2160p, Dub [4K] [Лицензия]

salma3

0 | 0

56.45 ГБ

В этой теме нет новых непрочитанных сообщений. Царь Скорпионов: Книга Душ / The Scorpion King: Book of Souls [Фэнтези, боевик, приключения, 2018] WEBRip 720p, Dvo

salma3

500 | 58

2.28 ГБ

В этой теме нет новых непрочитанных сообщений. Царь Скорпионов: Книга Душ / The Scorpion King: Book of Souls [Фэнтези, боевик, приключения, 2018] BDRemux 1080p, Dub

salma3

0 | 0

26.84 ГБ

В этой теме нет новых непрочитанных сообщений. Царь Скорпионов: Книга Душ / The Scorpion King: Book of Souls [Фэнтези, боевик, приключения, 2018] BDRip 1080p, Dub

salma3

3 | 9

7.79 ГБ

В этой теме нет новых непрочитанных сообщений. Царь скорпионов 2: Восхождение воина / The Scorpion King: Rise of a Warrior [фэнтези, боевик, приключения, 2008] BDRip 720р, Dub+Sub

salma3

0 | 0

4.25 ГБ


Начать новую тему Ответить на тему  [ 1 сообщение ] 




Для Мосгорсуда, Роскомнадзора и рекламодателей:: rstracker[собака]yandex.ru
cron