COVID-19 - Последняя информация о коронавирусе на сайте Минздрава




Торрент файл
скачать торрент магнет ссылка Добавлен: 27 июл 2018, 21:15
Размер: 27.77 ГБ
Сидеров: 0
Личеров: 0
Статус: (salma3)
Автор

СообщениеДобавлено: 27 июл 2018, 21:15 

Не в сети
Супермодератор
Аватара пользователя
Дата регистрации:
15 фев 2012, 16:44
Возраст: 31
Спасибо: 8283 / 2148
Сообщения: 96789
Год выхода: 1969
Жанр: драма
Режиссер: Роберт Олтмен

В ролях: Сэнди Деннис, Майкл Барнс, Сюзанна Бентон, Дэвид Гарфилд, Луана Андерс, Эдвард Гринхалг, Дорис Бэкинхэм, Фрэнк Вэйд, Алисия Эммон, Рэй Браун

О фильме:
Симпатичная, сдержанная и богатая незамужняя женщина в Ванкувере видит подростка, сидящего в парке под дождем. Она приглашает юношу к себе домой...



Страна: США, Канада, Commonwealth United Entertainment, Factor-Altman-Mirell Films
Продолжительность: 01:47:05
Перевод: Любительский одноголосый закадровый (Мика Бондарик)

Файл
Качество: BDRemux 1080p
Видео: AVC/H.264, 1920х1080, ~34.9 Mbps
Аудио: 1 PCM, 1 ch, 1152 kbps - Русский
Аудио: 2 PCM, 1 ch, 1152 kbps - Английский
Субтитры: Английские (Full, SDH)

***Работа с ремуксом и звуком Atomsk

General
Unique ID : 203998685713456846080926712942439828926 (0x9978B7BE0355CF35BD448BEF12E20DBE)
Complete name : H: DRAMAThat.Cold.Day.in.the.Park.1969.BDRemux.mkv
Format : Matroska
Format version : Version 4 / Version 2
File size : 27.8 GiB
Duration : 1 h 47 min
Overall bit rate mode : Variable
Overall bit rate : 37.1 Mb/s
Movie name : That Cold Day in the Park.1969.BDRemux _Atomsk_
Encoded date : UTC 2018-07-26 12:26:04
Writing application : mkvmerge v8.3.0 ('Over the Horizon') 64bit
Writing library : libebml v1.3.1 + libmatroska v1.4.2

Video
ID : 1
Format : AVC
Format/Info : Advanced Video Codec
Format profile : High@L4.1
Format settings : CABAC / 3 Ref Frames
Format settings, CABAC : Yes
Format settings, ReFrames : 3 frames
Codec ID : V_MPEG4/ISO/AVC
Duration : 1 h 46 min
Bit rate mode : Variable
Bit rate : 35.0 Mb/s
Maximum bit rate : 38.0 Mb/s
Width : 1 920 pixels
Height : 1 080 pixels
Display aspect ratio : 16:9
Frame rate mode : Constant
Frame rate : 23.976 (24000/1001) FPS
Color space : YUV
Chroma subsampling : 4:2:0
Bit depth : 8 bits
Scan type : Progressive
Bits/(Pixel*Frame) : 0.704
Stream size : 26.0 GiB (94%)
Title : That Cold Day in the Park.1969.BDRemux
Writing library : x264 core 148 r2638 7599210
Encoding settings : cabac=1 / ref=4 / deblock=1:0:0 / analyse=0x3:0x133 / me=umh / subme=10 / psy=1 / psy_rd=1.00:0.00 / mixed_ref=1 / me_range=24 / chroma_me=1 / trellis=2 / 8x8dct=1 / cqm=0 / deadzone=21,11 / fast_pskip=1 / chroma_qp_offset=-5 / threads=12 / lookahead_threads=1 / sliced_threads=0 / slices=4 / nr=0 / decimate=1 / interlaced=0 / bluray_compat=1 / constrained_intra=0 / bframes=3 / b_pyramid=1 / b_adapt=2 / b_bias=0 / direct=3 / weightb=1 / open_gop=1 / weightp=1 / keyint=24 / keyint_min=1 / scenecut=40 / intra_refresh=0 / rc_lookahead=24 / rc=2pass / mbtree=1 / bitrate=35000 / ratetol=0.1 / qcomp=0.00 / qpmin=0 / qpmax=69 / qpstep=4 / cplxblur=20.0 / qblur=0.5 / vbv_maxrate=38000 / vbv_bufsize=30000 / nal_hrd=vbr / filler=0 / ip_ratio=1.40 / aq=1:1.00
Language : English
Default : Yes
Forced : No
Color range : Limited
Color primaries : BT.709
Transfer characteristics : BT.709
Matrix coefficients : BT.709

Audio #1
ID : 2
Format : PCM
Format settings : Little / Signed
Codec ID : A_PCM/INT/LIT
Duration : 1 h 47 min
Bit rate mode : Constant
Bit rate : 1 152 kb/s
Sampling rate : 48.0 kHz
Frame rate : 32.000 FPS (1500 SPF)
Bit depth : 24 bits
Stream size : 882 MiB (3%)
Title : PCM 1.0 @ 1152 - VO, Мика Бондарик
Language : Russian
Default : Yes
Forced : No

Audio #2
ID : 3
Format : PCM
Format settings : Little / Signed
Codec ID : A_PCM/INT/LIT
Duration : 1 h 46 min
Bit rate mode : Constant
Bit rate : 1 152 kb/s
Sampling rate : 48.0 kHz
Frame rate : 32.000 FPS (1500 SPF)
Bit depth : 24 bits
Stream size : 881 MiB (3%)
Title : PCM 1.0 @ 1152 - Original
Language : English
Default : No
Forced : No

Text #1
ID : 4
Format : UTF-8
Codec ID : S_TEXT/UTF8
Codec ID/Info : UTF-8 Plain Text
Duration : 1 h 44 min
Bit rate : 47 b/s
Count of elements : 953
Stream size : 35.9 KiB (0%)
Language : English
Default : No
Forced : No

Text #2
ID : 5
Format : UTF-8
Codec ID : S_TEXT/UTF8
Codec ID/Info : UTF-8 Plain Text
Duration : 1 h 44 min
Bit rate : 53 b/s
Count of elements : 1171
Stream size : 40.8 KiB (0%)
Title : SDH
Language : English
Default : No
Forced : No

Menu
00:00:00.000 : en:Chapter 1
00:09:51.591 : en:Chapter 2
00:20:46.536 : en:Chapter 3
00:30:51.933 : en:Chapter 4
00:42:54.071 : en:Chapter 5
00:57:37.996 : en:Chapter 6
01:07:48.522 : en:Chapter 7
01:21:46.776 : en:Chapter 8
01:35:03.489 : en:Chapter 9


_________________
Проголосуй за трекер Открытый торрент трекер - RUS-MEDIA.ORG

Проголосуй Открытый торрент трекер - RUS-MEDIA.ORG


Скачать книги и аудио книги через торрент


Вернуться к началу
 Профиль Отправить личное сообщение  
 
   Похожие торренты   Автор   Торрент   Размер 
В этой теме нет новых непрочитанных сообщений. Холодным днём в парке / That Cold Day in the Park [драма, 1969] BDRip, Avo

salma3

0 | 0

1.45 ГБ

В этой теме нет новых непрочитанных сообщений. Паника в Нидл-парке / The Panic in Needle Park [Драма, мелодрама, криминал, 1971] BDRip, Dvo

salma3

8 | 0

1.46 ГБ

В этой теме нет новых непрочитанных сообщений. Холод в июле / Cold in July [триллер, криминал, драма, 2014] BDRemux 1080p, Dub

salma3

0 | 0

28.82 ГБ

В этой теме нет новых непрочитанных сообщений. Снегоуборщик / Cold Pursuit [Боевик, триллер, драма, 2019] BDRemux 1080p, Dub [Лицензия]

salma3

0 | 0

30.71 ГБ

В этой теме нет новых непрочитанных сообщений. Сатирикон Феллини / Fellini-Satyricon [Драма, история, экранизация, 1969] BDRemux 1080p, Mvo

salma3

0 | 0

25.62 ГБ

В этой теме нет новых непрочитанных сообщений. Дрожь земли 6 / Tremors: A Cold Day in Hell [фантастика, боевик, ужасы, 2018] WEBRip 1080p, Mvo

salma3

74 | 64

7.5 ГБ

В этой теме нет новых непрочитанных сообщений. День Шакала / The Day of the Jackal [Триллер, драма, криминал, 1973] BDRemux 1080p, Mvo

salma3

0 | 0

30.38 ГБ


Начать новую тему Ответить на тему  [ 1 сообщение ] 




Для Мосгорсуда, Роскомнадзора и рекламодателей:: rstracker[собака]yandex.ru
cron